  0
SECTION
  2
HEADER
  9
$ACADVER
  1
AC1014
  9
$ACADMAINTVER
 70
     0
  9
$DWGCODEPAGE
  3
ANSI_1252
  9
$INSBASE
 10
0.0
 20
0.0
 30
0.0
  9
$EXTMIN
 10
-325.254588
 20
-339.273757
 30
0.0
  9
$EXTMAX
 10
5772.074066
 20
1585.726243
 30
0.0
  9
$LIMMIN
 10
-10.0
 20
-10.0
  9
$LIMMAX
 10
5923.708231
 20
4121.215681
  9
$ORTHOMODE
 70
     1
  9
$REGENMODE
 70
     1
  9
$FILLMODE
 70
     1
  9
$QTEXTMODE
 70
     0
  9
$MIRRTEXT
 70
     1
  9
$DRAGMODE
 70
     2
  9
$LTSCALE
 40
50.0
  9
$OSMODE
 70
     0
  9
$ATTMODE
 70
     1
  9
$TEXTSIZE
 40
78.213599
  9
$TRACEWID
 40
0.05
  9
$TEXTSTYLE
  7
ROMANS
  9
$CLAYER
  8
0
  9
$CELTYPE
  6
BYLAYER
  9
$CECOLOR
 62
   256
  9
$CELTSCALE
 40
1.0
  9
$DELOBJ
 70
     1
  9
$DISPSILH
 70
     0
  9
$DIMSCALE
 40
0.0
  9
$DIMASZ
 40
40.0
  9
$DIMEXO
 40
0.1
  9
$DIMDLI
 40
0.4
  9
$DIMRND
 40
0.1
  9
$DIMDLE
 40
0.0
  9
$DIMEXE
 40
1.0
  9
$DIMTP
 40
0.0
  9
$DIMTM
 40
0.0
  9
$DIMTXT
 40
40.0
  9
$DIMCEN
 40
25.5
  9
$DIMTSZ
 40
0.0
  9
$DIMTOL
 70
     0
  9
$DIMLIM
 70
     0
  9
$DIMTIH
 70
     0
  9
$DIMTOH
 70
     0
  9
$DIMSE1
 70
     0
  9
$DIMSE2
 70
     0
  9
$DIMTAD
 70
     1
  9
$DIMZIN
 70
     0
  9
$DIMBLK
  1

  9
$DIMASO
 70
     1
  9
$DIMSHO
 70
     1
  9
$DIMPOST
  1

  9
$DIMAPOST
  1

  9
$DIMALT
 70
     0
  9
$DIMALTD
 70
     2
  9
$DIMALTF
 40
25.4
  9
$DIMLFAC
 40
1.0
  9
$DIMTOFL
 70
     0
  9
$DIMTVP
 40
0.0
  9
$DIMTIX
 70
     0
  9
$DIMSOXD
 70
     0
  9
$DIMSAH
 70
     0
  9
$DIMBLK1
  1

  9
$DIMBLK2
  1

  9
$DIMSTYLE
  2
STANDARD
  9
$DIMCLRD
 70
     0
  9
$DIMCLRE
 70
     0
  9
$DIMCLRT
 70
     0
  9
$DIMTFAC
 40
0.2
  9
$DIMGAP
 40
5.0
  9
$DIMJUST
 70
     0
  9
$DIMSD1
 70
     0
  9
$DIMSD2
 70
     0
  9
$DIMTOLJ
 70
     1
  9
$DIMTZIN
 70
     0
  9
$DIMALTZ
 70
     0
  9
$DIMALTTZ
 70
     0
  9
$DIMFIT
 70
     3
  9
$DIMUPT
 70
     0
  9
$DIMUNIT
 70
     2
  9
$DIMDEC
 70
     1
  9
$DIMTDEC
 70
     2
  9
$DIMALTU
 70
     2
  9
$DIMALTTD
 70
     2
  9
$DIMTXSTY
  7
ROMANS
  9
$DIMAUNIT
 70
     0
  9
$LUNITS
 70
     2
  9
$LUPREC
 70
     3
  9
$SKETCHINC
 40
0.1
  9
$FILLETRAD
 40
80.0
  9
$AUNITS
 70
     0
  9
$AUPREC
 70
     4
  9
$MENU
  1
acad
  9
$ELEVATION
 40
0.0
  9
$PELEVATION
 40
0.0
  9
$THICKNESS
 40
0.0
  9
$LIMCHECK
 70
     0
  9
$BLIPMODE
 70
     1
  9
$CHAMFERA
 40
0.0
  9
$CHAMFERB
 40
0.0
  9
$CHAMFERC
 40
0.0
  9
$CHAMFERD
 40
0.0
  9
$SKPOLY
 70
     0
  9
$TDCREATE
 40
2450114.694033101
  9
$TDUPDATE
 40
2452667.370847835
  9
$TDINDWG
 40
8.9743693981
  9
$TDUSRTIMER
 40
8.9743693981
  9
$USRTIMER
 70
     1
  9
$ANGBASE
 50
0.0
  9
$ANGDIR
 70
     0
  9
$PDMODE
 70
     0
  9
$PDSIZE
 40
0.0
  9
$PLINEWID
 40
0.0
  9
$COORDS
 70
     0
  9
$SPLFRAME
 70
     0
  9
$SPLINETYPE
 70
     6
  9
$SPLINESEGS
 70
     8
  9
$ATTDIA
 70
     0
  9
$ATTREQ
 70
     1
  9
$HANDLING
 70
     1
  9
$HANDSEED
  5
2BF0F
  9
$SURFTAB1
 70
     6
  9
$SURFTAB2
 70
     6
  9
$SURFTYPE
 70
     6
  9
$SURFU
 70
     6
  9
$SURFV
 70
     6
  9
$UCSNAME
  2

  9
$UCSORG
 10
0.0
 20
0.0
 30
0.0
  9
$UCSXDIR
 10
1.0
 20
0.0
 30
0.0
  9
$UCSYDIR
 10
0.0
 20
1.0
 30
0.0
  9
$PUCSNAME
  2

  9
$PUCSORG
 10
0.0
 20
0.0
 30
0.0
  9
$PUCSXDIR
 10
1.0
 20
0.0
 30
0.0
  9
$PUCSYDIR
 10
0.0
 20
1.0
 30
0.0
  9
$USERI1
 70
     0
  9
$USERI2
 70
     0
  9
$USERI3
 70
     0
  9
$USERI4
 70
     0
  9
$USERI5
 70
     0
  9
$USERR1
 40
0.0
  9
$USERR2
 40
0.0
  9
$USERR3
 40
0.0
  9
$USERR4
 40
0.0
  9
$USERR5
 40
0.0
  9
$WORLDVIEW
 70
     1
  9
$SHADEDGE
 70
     3
  9
$SHADEDIF
 70
    70
  9
$TILEMODE
 70
     1
  9
$MAXACTVP
 70
    16
  9
$PINSBASE
 10
0.0
 20
0.0
 30
0.0
  9
$PLIMCHECK
 70
     0
  9
$PEXTMIN
 10
1.000000E+20
 20
1.000000E+20
 30
1.000000E+20
  9
$PEXTMAX
 10
-1.000000E+20
 20
-1.000000E+20
 30
-1.000000E+20
  9
$PLIMMIN
 10
0.0
 20
0.0
  9
$PLIMMAX
 10
12.0
 20
9.0
  9
$UNITMODE
 70
     0
  9
$VISRETAIN
 70
     0
  9
$PLINEGEN
 70
     0
  9
$PSLTSCALE
 70
     0
  9
$TREEDEPTH
 70
  3020
  9
$PICKSTYLE
 70
     1
  9
$CMLSTYLE
  2
STANDARD
  9
$CMLJUST
 70
     0
  9
$CMLSCALE
 40
1.0
  9
$PROXYGRAPHICS
 70
     1
  9
$MEASUREMENT
 70
     0
  0
ENDSEC
  0
SECTION
  2
CLASSES
  0
CLASS
  1
LWPOLYLINE
  2
AcDbPolyline
  3
"AutoCAD"
 90
        0
280
     0
281
     1
  0
CLASS
  1
HATCH
  2
AcDbHatch
  3
"ACAD_SEDONA"
 90
        0
280
     0
281
     1
  0
CLASS
  1
DICTIONARYVAR
  2
AcDbDictionaryVar
  3
"AutoCAD"
 90
        0
280
     0
281
     0
  0
ENDSEC
  0
SECTION
  2
TABLES
  0
TABLE
  2
VPORT
  5
8
100
AcDbSymbolTable
 70
     1
  0
VPORT
  5
2BF0B
100
AcDbSymbolTableRecord
100
AcDbViewportTableRecord
  2
*ACTIVE
 70
     0
 10
0.0
 20
0.0
 11
1.0
 21
1.0
 12
4415.683342
 22
694.223309
 13
0.0
 23
0.0
 14
0.5
 24
0.5
 15
50.0
 25
50.0
 16
0.0
 26
0.0
 36
1.0
 17
0.0
 27
0.0
 37
0.0
 40
2223.572242
 41
1.657303
 42
50.0
 43
0.0
 44
0.0
 50
0.0
 51
0.0
 71
     0
 72
   100
 73
     1
 74
     1
 75
     0
 76
     0
 77
     0
 78
     0
  0
ENDTAB
  0
TABLE
  2
LTYPE
  5
5
100
AcDbSymbolTable
 70
     1
  0
LTYPE
  5
12
100
AcDbSymbolTableRecord
100
AcDbLinetypeTableRecord
  2
BYBLOCK
 70
     0
  3

 72
    65
 73
     0
 40
0.0
  0
LTYPE
  5
13
100
AcDbSymbolTableRecord
100
AcDbLinetypeTableRecord
  2
BYLAYER
 70
     0
  3

 72
    65
 73
     0
 40
0.0
  0
LTYPE
  5
14
100
AcDbSymbolTableRecord
100
AcDbLinetypeTableRecord
  2
CONTINUOUS
 70
     0
  3
Solid line
 72
    65
 73
     0
 40
0.0
  0
ENDTAB
  0
TABLE
  2
LAYER
  5
2
100
AcDbSymbolTable
 70
     9
  0
LAYER
  5
F
100
AcDbSymbolTableRecord
100
AcDbLayerTableRecord
  2
0
 70
     0
 62
     7
  6
CONTINUOUS
  0
LAYER
  5
DC
100
AcDbSymbolTableRecord
100
AcDbLayerTableRecord
  2
BEMASS
 70
     0
 62
     5
  6
CONTINUOUS
  0
LAYER
  5
DD
100
AcDbSymbolTableRecord
100
AcDbLayerTableRecord
  2
WANNE
 70
     0
 62
     7
  6
CONTINUOUS
  0
LAYER
  5
E2
100
AcDbSymbolTableRecord
100
AcDbLayerTableRecord
  2
TT
 70
     0
 62
     5
  6
CONTINUOUS
  0
LAYER
  5
E5
100
AcDbSymbolTableRecord
100
AcDbLayerTableRecord
  2
STP
 70
     0
 62
     5
  6
CONTINUOUS
  0
LAYER
  5
E7
100
AcDbSymbolTableRecord
100
AcDbLayerTableRecord
  2
DEFPOINTS
 70
     0
 62
     7
  6
CONTINUOUS
  0
LAYER
  5
699A
100
AcDbSymbolTableRecord
100
AcDbLayerTableRecord
  2
ASHADE
 70
     0
 62
     7
  6
CONTINUOUS
  0
LAYER
  5
1418F
100
AcDbSymbolTableRecord
100
AcDbLayerTableRecord
  2
HILF
 70
     0
 62
     2
  6
CONTINUOUS
  0
LAYER
  5
1E786
100
AcDbSymbolTableRecord
100
AcDbLayerTableRecord
  2
LAYER1
 70
     0
 62
     7
  6
CONTINUOUS
  0
ENDTAB
  0
TABLE
  2
STYLE
  5
3
100
AcDbSymbolTable
 70
     4
  0
STYLE
  5
10
100
AcDbSymbolTableRecord
100
AcDbTextStyleTableRecord
  2
STANDARD
 70
     0
 40
0.0
 41
1.0
 50
0.0
 71
     0
 42
0.2
  3
romans.shx
  4

  0
STYLE
  5
D5
100
AcDbSymbolTableRecord
100
AcDbTextStyleTableRecord
  2
ROMANS8
 70
     0
 40
0.0
 41
1.0
 50
0.0
 71
     0
 42
25.0
  3
romans.shx
  4

  0
STYLE
  5
C53
100
AcDbSymbolTableRecord
100
AcDbTextStyleTableRecord
  2
ROMANS
 70
     0
 40
0.0
 41
1.0
 50
0.0
 71
     0
 42
78.213599
  3
romans.shx
  4

  0
STYLE
  5
699F
100
AcDbSymbolTableRecord
100
AcDbTextStyleTableRecord
  2
ILKA2
 70
     0
 40
0.0
 41
1.0
 50
0.0
 71
     0
 42
50.0
  3
C:\ACADR13\COMMON\FONTS\romans.shx
  4

  0
ENDTAB
  0
TABLE
  2
VIEW
  5
6
100
AcDbSymbolTable
 70
     0
  0
ENDTAB
  0
TABLE
  2
UCS
  5
7
100
AcDbSymbolTable
 70
     0
  0
ENDTAB
  0
TABLE
  2
APPID
  5
9
100
AcDbSymbolTable
 70
     6
  0
APPID
  5
11
100
AcDbSymbolTableRecord
100
AcDbRegAppTableRecord
  2
ACAD
 70
     0
  0
APPID
  5
69A1
100
AcDbSymbolTableRecord
100
AcDbRegAppTableRecord
  2
AVE_RENDER
 70
     0
  0
APPID
  5
69A2
100
AcDbSymbolTableRecord
100
AcDbRegAppTableRecord
  2
AVE_ENTITY_MATERIAL
 70
     0
  0
APPID
  5
69A3
100
AcDbSymbolTableRecord
100
AcDbRegAppTableRecord
  2
AVE_FINISH
 70
     0
  0
APPID
  5
69A4
100
AcDbSymbolTableRecord
100
AcDbRegAppTableRecord
  2
AVE_MATERIAL
 70
     0
  0
APPID
  5
69A5
100
AcDbSymbolTableRecord
100
AcDbRegAppTableRecord
  2
AVE_GLOBAL
 70
     0
  0
ENDTAB
  0
TABLE
  2
DIMSTYLE
  5
A
100
AcDbSymbolTable
 70
     1
  0
DIMSTYLE
105
8BC
102
{ACAD_REACTORS
330
2BE80
330
2BE8D
330
2BE9B
330
2BEA9
330
2BEB7
330
2BEC4
330
2BED2
330
2BEDF
330
2BEEC
102
}
100
AcDbSymbolTableRecord
100
AcDbDimStyleTableRecord
  2
STANDARD
 70
     0
  3

  4

  5

  6

  7

 40
1.0
 41
15.0
 42
0.1
 43
0.4
 44
5.0
 45
0.1
 46
0.0
 47
0.0
 48
0.0
140
25.0
141
2.5
142
0.0
143
25.4
144
1.0
145
0.0
146
0.2
147
5.0
 71
     0
 72
     0
 73
     0
 74
     0
 75
     0
 76
     0
 77
     1
 78
     0
170
     0
171
     2
172
     1
173
     0
174
     0
175
     0
176
     0
177
     0
178
     0
270
     2
271
     1
272
     1
273
     2
274
     2
340
C53
275
     0
280
     0
281
     0
282
     0
283
     1
284
     0
285
     0
286
     0
287
     3
288
     1
  0
ENDTAB
  0
TABLE
  2
BLOCK_RECORD
  5
1
100
AcDbSymbolTable
 70
    11
  0
BLOCK_RECORD
  5
18
100
AcDbSymbolTableRecord
100
AcDbBlockTableRecord
  2
*MODEL_SPACE
  0
BLOCK_RECORD
  5
15
100
AcDbSymbolTableRecord
100
AcDbBlockTableRecord
  2
*PAPER_SPACE
  0
BLOCK_RECORD
  5
539F
100
AcDbSymbolTableRecord
100
AcDbBlockTableRecord
  2
AVE_RENDER
  0
BLOCK_RECORD
  5
53A2
100
AcDbSymbolTableRecord
100
AcDbBlockTableRecord
  2
AVE_GLOBAL
  0
BLOCK_RECORD
  5
2BE74
100
AcDbSymbolTableRecord
100
AcDbBlockTableRecord
  2
*D2
  0
BLOCK_RECORD
  5
2BE81
100
AcDbSymbolTableRecord
100
AcDbBlockTableRecord
  2
*D3
  0
BLOCK_RECORD
  5
2BE8E
100
AcDbSymbolTableRecord
100
AcDbBlockTableRecord
  2
*D4
  0
BLOCK_RECORD
  5
2BE9C
100
AcDbSymbolTableRecord
100
AcDbBlockTableRecord
  2
*D5
  0
BLOCK_RECORD
  5
2BEAA
100
AcDbSymbolTableRecord
100
AcDbBlockTableRecord
  2
*D6
  0
BLOCK_RECORD
  5
2BEB8
100
AcDbSymbolTableRecord
100
AcDbBlockTableRecord
  2
*D7
  0
BLOCK_RECORD
  5
2BEC5
100
AcDbSymbolTableRecord
100
AcDbBlockTableRecord
  2
*D8
  0
BLOCK_RECORD
  5
2BED3
100
AcDbSymbolTableRecord
100
AcDbBlockTableRecord
  2
*D9
  0
BLOCK_RECORD
  5
2BEE0
100
AcDbSymbolTableRecord
100
AcDbBlockTableRecord
  2
*D10
  0
ENDTAB
  0
ENDSEC
  0
SECTION
  2
BLOCKS
  0
BLOCK
  5
EC
100
AcDbEntity
  8
0
100
AcDbBlockBegin
  2
*MODEL_SPACE
 70
     0
 10
0.0
 20
0.0
 30
0.0
  3
*MODEL_SPACE
  1

  0
ENDBLK
  5
ED
100
AcDbEntity
  8
0
100
AcDbBlockEnd
  0
BLOCK
  5
EA
100
AcDbEntity
 67
     1
  8
0
100
AcDbBlockBegin
  2
*PAPER_SPACE
 70
     0
 10
0.0
 20
0.0
 30
0.0
  3
*PAPER_SPACE
  1

  0
ENDBLK
  5
EB
100
AcDbEntity
 67
     1
  8
0
100
AcDbBlockEnd
  0
BLOCK
  5
53A0
100
AcDbEntity
  8
0
100
AcDbBlockBegin
  2
AVE_RENDER
 70
     0
 10
0.0
 20
0.0
 30
0.0
  3
AVE_RENDER
  1
AVE_RENDER
  0
ENDBLK
  5
53A1
100
AcDbEntity
  8
0
100
AcDbBlockEnd
  0
BLOCK
  5
53A3
100
AcDbEntity
  8
0
100
AcDbBlockBegin
  2
AVE_GLOBAL
 70
     0
 10
0.0
 20
0.0
 30
0.0
  3
AVE_GLOBAL
  1
AVE_GLOBAL
  0
ENDBLK
  5
53A4
100
AcDbEntity
  8
0
100
AcDbBlockEnd
  0
BLOCK
  5
2BE75
100
AcDbEntity
  8
0
100
AcDbBlockBegin
  2
*D2
 70
     1
 10
0.0
 20
0.0
 30
0.0
  3
*D2
  1

  0
LINE
  5
2BE76
100
AcDbEntity
  8
0
  6
BYBLOCK
 62
     0
100
AcDbLine
 10
2325.990294
 20
1100.977631
 30
0.0
 11
2325.990294
 21
1318.909962
 31
0.0
  0
LINE
  5
2BE77
100
AcDbEntity
  8
0
  6
BYBLOCK
 62
     0
100
AcDbLine
 10
525.990294
 20
1100.977631
 30
0.0
 11
525.990294
 21
1318.909962
 31
0.0
  0
LINE
  5
2BE78
100
AcDbEntity
  8
0
  6
BYBLOCK
 62
     0
100
AcDbLine
 10
2285.990294
 20
1317.909962
 30
0.0
 11
565.990294
 21
1317.909962
 31
0.0
  0
SOLID
  5
2BE79
100
AcDbEntity
  8
0
  6
BYBLOCK
 62
     0
100
AcDbTrace
 10
2285.990294
 20
1324.576629
 30
0.0
 11
2285.990294
 21
1311.243296
 31
0.0
 12
2325.990294
 22
1317.909962
 32
0.0
 13
2325.990294
 23
1317.909962
 33
0.0
  0
SOLID
  5
2BE7A
100
AcDbEntity
  8
0
  6
BYBLOCK
 62
     0
100
AcDbTrace
 10
565.990294
 20
1324.576629
 30
0.0
 11
565.990294
 21
1311.243296
 31
0.0
 12
525.990294
 22
1317.909962
 32
0.0
 13
525.990294
 23
1317.909962
 33
0.0
  0
MTEXT
  5
2BE7B
100
AcDbEntity
  8
0
  6
BYBLOCK
 62
     0
100
AcDbMText
 10
1425.990294
 20
1342.909962
 30
0.0
 40
40.0
 41
0.0
 71
     5
 72
     1
  1
\A1;1800
  7
ROMANS
  0
POINT
  5
2BE7C
100
AcDbEntity
  8
DEFPOINTS
  6
BYBLOCK
 62
     0
100
AcDbPoint
 10
2325.990294
 20
1100.877631
 30
0.0
  0
POINT
  5
2BE7D
100
AcDbEntity
  8
DEFPOINTS
  6
BYBLOCK
 62
     0
100
AcDbPoint
 10
525.990294
 20
1100.877631
 30
0.0
  0
POINT
  5
2BE7E
100
AcDbEntity
  8
DEFPOINTS
  6
BYBLOCK
 62
     0
100
AcDbPoint
 10
525.990294
 20
1317.909962
 30
0.0
  0
ENDBLK
  5
2BE7F
100
AcDbEntity
  8
0
100
AcDbBlockEnd
  0
BLOCK
  5
2BE82
100
AcDbEntity
  8
0
100
AcDbBlockBegin
  2
*D3
 70
     1
 10
0.0
 20
0.0
 30
0.0
  3
*D3
  1

  0
LINE
  5
2BE83
100
AcDbEntity
  8
0
  6
BYBLOCK
 62
     0
100
AcDbLine
 10
2265.990294
 20
710.977631
 30
0.0
 11
2265.990294
 21
1221.291453
 31
0.0
  0
LINE
  5
2BE84
100
AcDbEntity
  8
0
  6
BYBLOCK
 62
     0
100
AcDbLine
 10
585.990294
 20
710.977631
 30
0.0
 11
585.990294
 21
1221.291453
 31
0.0
  0
LINE
  5
2BE85
100
AcDbEntity
  8
0
  6
BYBLOCK
 62
     0
100
AcDbLine
 10
2225.990294
 20
1220.291453
 30
0.0
 11
625.990294
 21
1220.291453
 31
0.0
  0
SOLID
  5
2BE86
100
AcDbEntity
  8
0
  6
BYBLOCK
 62
     0
100
AcDbTrace
 10
2225.990294
 20
1226.95812
 30
0.0
 11
2225.990294
 21
1213.624786
 31
0.0
 12
2265.990294
 22
1220.291453
 32
0.0
 13
2265.990294
 23
1220.291453
 33
0.0
  0
SOLID
  5
2BE87
100
AcDbEntity
  8
0
  6
BYBLOCK
 62
     0
100
AcDbTrace
 10
625.990294
 20
1226.95812
 30
0.0
 11
625.990294
 21
1213.624786
 31
0.0
 12
585.990294
 22
1220.291453
 32
0.0
 13
585.990294
 23
1220.291453
 33
0.0
  0
MTEXT
  5
2BE88
100
AcDbEntity
  8
0
  6
BYBLOCK
 62
     0
100
AcDbMText
 10
1425.990294
 20
1245.291453
 30
0.0
 40
40.0
 41
0.0
 71
     5
 72
     1
  1
\A1;1680
  7
ROMANS
  0
POINT
  5
2BE89
100
AcDbEntity
  8
DEFPOINTS
  6
BYBLOCK
 62
     0
100
AcDbPoint
 10
2265.990294
 20
710.877631
 30
0.0
  0
POINT
  5
2BE8A
100
AcDbEntity
  8
DEFPOINTS
  6
BYBLOCK
 62
     0
100
AcDbPoint
 10
585.990294
 20
710.877631
 30
0.0
  0
POINT
  5
2BE8B
100
AcDbEntity
  8
DEFPOINTS
  6
BYBLOCK
 62
     0
100
AcDbPoint
 10
585.990294
 20
1220.291453
 30
0.0
  0
ENDBLK
  5
2BE8C
100
AcDbEntity
  8
0
100
AcDbBlockEnd
  0
BLOCK
  5
2BE8F
100
AcDbEntity
  8
0
100
AcDbBlockBegin
  2
*D4
 70
     1
 10
0.0
 20
0.0
 30
0.0
  3
*D4
  1

  0
LINE
  5
2BE90
100
AcDbEntity
  8
0
  6
BYBLOCK
 62
     0
100
AcDbLine
 10
585.990294
 20
710.977631
 30
0.0
 11
585.990294
 21
1221.265486
 31
0.0
  0
LINE
  5
2BE91
100
AcDbEntity
  8
0
  6
BYBLOCK
 62
     0
100
AcDbLine
 10
525.990294
 20
710.977631
 30
0.0
 11
525.990294
 21
1221.265486
 31
0.0
  0
LINE
  5
2BE92
100
AcDbEntity
  8
0
  6
BYBLOCK
 62
     0
100
AcDbLine
 10
625.990294
 20
1220.265486
 30
0.0
 11
665.990294
 21
1220.265486
 31
0.0
  0
LINE
  5
2BE93
100
AcDbEntity
  8
0
  6
BYBLOCK
 62
     0
100
AcDbLine
 10
485.990294
 20
1220.265486
 30
0.0
 11
373.133151
 21
1220.265486
 31
0.0
  0
SOLID
  5
2BE94
100
AcDbEntity
  8
0
  6
BYBLOCK
 62
     0
100
AcDbTrace
 10
625.990294
 20
1226.932153
 30
0.0
 11
625.990294
 21
1213.598819
 31
0.0
 12
585.990294
 22
1220.265486
 32
0.0
 13
585.990294
 23
1220.265486
 33
0.0
  0
SOLID
  5
2BE95
100
AcDbEntity
  8
0
  6
BYBLOCK
 62
     0
100
AcDbTrace
 10
485.990294
 20
1226.932153
 30
0.0
 11
485.990294
 21
1213.598819
 31
0.0
 12
525.990294
 22
1220.265486
 32
0.0
 13
525.990294
 23
1220.265486
 33
0.0
  0
MTEXT
  5
2BE96
100
AcDbEntity
  8
0
  6
BYBLOCK
 62
     0
100
AcDbMText
 10
409.561722
 20
1245.265486
 30
0.0
 40
40.0
 41
0.0
 71
     5
 72
     1
  1
\A1;60
  7
ROMANS
  0
POINT
  5
2BE97
100
AcDbEntity
  8
DEFPOINTS
  6
BYBLOCK
 62
     0
100
AcDbPoint
 10
585.990294
 20
710.877631
 30
0.0
  0
POINT
  5
2BE98
100
AcDbEntity
  8
DEFPOINTS
  6
BYBLOCK
 62
     0
100
AcDbPoint
 10
525.990294
 20
710.877631
 30
0.0
  0
POINT
  5
2BE99
100
AcDbEntity
  8
DEFPOINTS
  6
BYBLOCK
 62
     0
100
AcDbPoint
 10
525.990294
 20
1220.265486
 30
0.0
  0
ENDBLK
  5
2BE9A
100
AcDbEntity
  8
0
100
AcDbBlockEnd
  0
BLOCK
  5
2BE9D
100
AcDbEntity
  8
0
100
AcDbBlockBegin
  2
*D5
 70
     1
 10
0.0
 20
0.0
 30
0.0
  3
*D5
  1

  0
LINE
  5
2BE9E
100
AcDbEntity
  8
0
  6
BYBLOCK
 62
     0
100
AcDbLine
 10
2265.990294
 20
710.977631
 30
0.0
 11
2265.990294
 21
1221.445077
 31
0.0
  0
LINE
  5
2BE9F
100
AcDbEntity
  8
0
  6
BYBLOCK
 62
     0
100
AcDbLine
 10
2325.990294
 20
710.977631
 30
0.0
 11
2325.990294
 21
1221.445077
 31
0.0
  0
LINE
  5
2BEA0
100
AcDbEntity
  8
0
  6
BYBLOCK
 62
     0
100
AcDbLine
 10
2225.990294
 20
1220.445077
 30
0.0
 11
2185.990294
 21
1220.445077
 31
0.0
  0
LINE
  5
2BEA1
100
AcDbEntity
  8
0
  6
BYBLOCK
 62
     0
100
AcDbLine
 10
2365.990294
 20
1220.445077
 30
0.0
 11
2478.847436
 21
1220.445077
 31
0.0
  0
SOLID
  5
2BEA2
100
AcDbEntity
  8
0
  6
BYBLOCK
 62
     0
100
AcDbTrace
 10
2225.990294
 20
1227.111743
 30
0.0
 11
2225.990294
 21
1213.77841
 31
0.0
 12
2265.990294
 22
1220.445077
 32
0.0
 13
2265.990294
 23
1220.445077
 33
0.0
  0
SOLID
  5
2BEA3
100
AcDbEntity
  8
0
  6
BYBLOCK
 62
     0
100
AcDbTrace
 10
2365.990294
 20
1227.111743
 30
0.0
 11
2365.990294
 21
1213.77841
 31
0.0
 12
2325.990294
 22
1220.445077
 32
0.0
 13
2325.990294
 23
1220.445077
 33
0.0
  0
MTEXT
  5
2BEA4
100
AcDbEntity
  8
0
  6
BYBLOCK
 62
     0
100
AcDbMText
 10
2442.418865
 20
1245.445077
 30
0.0
 40
40.0
 41
0.0
 71
     5
 72
     1
  1
\A1;60
  7
ROMANS
  0
POINT
  5
2BEA5
100
AcDbEntity
  8
DEFPOINTS
  6
BYBLOCK
 62
     0
100
AcDbPoint
 10
2265.990294
 20
710.877631
 30
0.0
  0
POINT
  5
2BEA6
100
AcDbEntity
  8
DEFPOINTS
  6
BYBLOCK
 62
     0
100
AcDbPoint
 10
2325.990294
 20
710.877631
 30
0.0
  0
POINT
  5
2BEA7
100
AcDbEntity
  8
DEFPOINTS
  6
BYBLOCK
 62
     0
100
AcDbPoint
 10
2325.990294
 20
1220.445077
 30
0.0
  0
ENDBLK
  5
2BEA8
100
AcDbEntity
  8
0
100
AcDbBlockEnd
  0
BLOCK
  5
2BEAB
100
AcDbEntity
  8
0
100
AcDbBlockBegin
  2
*D6
 70
     1
 10
0.0
 20
0.0
 30
0.0
  3
*D6
  1

  0
LINE
  5
2BEAC
100
AcDbEntity
  8
0
  6
BYBLOCK
 62
     0
100
AcDbLine
 10
1416.57366
 20
1051.962531
 30
0.0
 11
294.190547
 21
1051.962531
 31
0.0
  0
LINE
  5
2BEAD
100
AcDbEntity
  8
0
  6
BYBLOCK
 62
     0
100
AcDbLine
 10
1416.57366
 20
1110.877631
 30
0.0
 11
294.190547
 21
1110.877631
 31
0.0
  0
LINE
  5
2BEAE
100
AcDbEntity
  8
0
  6
BYBLOCK
 62
     0
100
AcDbLine
 10
295.190547
 20
1011.962531
 30
0.0
 11
295.190547
 21
971.962531
 31
0.0
  0
LINE
  5
2BEAF
100
AcDbEntity
  8
0
  6
BYBLOCK
 62
     0
100
AcDbLine
 10
295.190547
 20
1150.877631
 30
0.0
 11
295.190547
 21
1263.734774
 31
0.0
  0
SOLID
  5
2BEB0
100
AcDbEntity
  8
0
  6
BYBLOCK
 62
     0
100
AcDbTrace
 10
288.52388
 20
1011.962531
 30
0.0
 11
301.857214
 21
1011.962531
 31
0.0
 12
295.190547
 22
1051.962531
 32
0.0
 13
295.190547
 23
1051.962531
 33
0.0
  0
SOLID
  5
2BEB1
100
AcDbEntity
  8
0
  6
BYBLOCK
 62
     0
100
AcDbTrace
 10
288.52388
 20
1150.877631
 30
0.0
 11
301.857214
 21
1150.877631
 31
0.0
 12
295.190547
 22
1110.877631
 32
0.0
 13
295.190547
 23
1110.877631
 33
0.0
  0
MTEXT
  5
2BEB2
100
AcDbEntity
  8
0
  6
BYBLOCK
 62
     0
100
AcDbMText
 10
270.190547
 20
1227.306202
 30
0.0
 40
40.0
 41
0.0
 71
     5
 72
     1
  1
\A1;60
  7
ROMANS
 11
0.0
 21
1.0
 31
0.0
  0
POINT
  5
2BEB3
100
AcDbEntity
  8
DEFPOINTS
  6
BYBLOCK
 62
     0
100
AcDbPoint
 10
1416.67366
 20
1051.962531
 30
0.0
  0
POINT
  5
2BEB4
100
AcDbEntity
  8
DEFPOINTS
  6
BYBLOCK
 62
     0
100
AcDbPoint
 10
1416.67366
 20
1110.877631
 30
0.0
  0
POINT
  5
2BEB5
100
AcDbEntity
  8
DEFPOINTS
  6
BYBLOCK
 62
     0
100
AcDbPoint
 10
295.190547
 20
1110.877631
 30
0.0
  0
ENDBLK
  5
2BEB6
100
AcDbEntity
  8
0
100
AcDbBlockEnd
  0
BLOCK
  5
2BEB9
100
AcDbEntity
  8
0
100
AcDbBlockBegin
  2
*D7
 70
     1
 10
0.0
 20
0.0
 30
0.0
  3
*D7
  1

  0
LINE
  5
2BEBA
100
AcDbEntity
  8
0
  6
BYBLOCK
 62
     0
100
AcDbLine
 10
535.890294
 20
1110.877631
 30
0.0
 11
231.972704
 21
1110.877631
 31
0.0
  0
LINE
  5
2BEBB
100
AcDbEntity
  8
0
  6
BYBLOCK
 62
     0
100
AcDbLine
 10
535.890294
 20
310.877631
 30
0.0
 11
231.972704
 21
310.877631
 31
0.0
  0
LINE
  5
2BEBC
100
AcDbEntity
  8
0
  6
BYBLOCK
 62
     0
100
AcDbLine
 10
232.972704
 20
1070.877631
 30
0.0
 11
232.972704
 21
350.877631
 31
0.0
  0
SOLID
  5
2BEBD
100
AcDbEntity
  8
0
  6
BYBLOCK
 62
     0
100
AcDbTrace
 10
226.306038
 20
1070.877631
 30
0.0
 11
239.639371
 21
1070.877631
 31
0.0
 12
232.972704
 22
1110.877631
 32
0.0
 13
232.972704
 23
1110.877631
 33
0.0
  0
SOLID
  5
2BEBE
100
AcDbEntity
  8
0
  6
BYBLOCK
 62
     0
100
AcDbTrace
 10
226.306038
 20
350.877631
 30
0.0
 11
239.639371
 21
350.877631
 31
0.0
 12
232.972704
 22
310.877631
 32
0.0
 13
232.972704
 23
310.877631
 33
0.0
  0
MTEXT
  5
2BEBF
100
AcDbEntity
  8
0
  6
BYBLOCK
 62
     0
100
AcDbMText
 10
207.972704
 20
710.877631
 30
0.0
 40
40.0
 41
0.0
 71
     5
 72
     1
  1
\A1;800
  7
ROMANS
 11
0.0
 21
1.0
 31
0.0
  0
POINT
  5
2BEC0
100
AcDbEntity
  8
DEFPOINTS
  6
BYBLOCK
 62
     0
100
AcDbPoint
 10
535.990294
 20
1110.877631
 30
0.0
  0
POINT
  5
2BEC1
100
AcDbEntity
  8
DEFPOINTS
  6
BYBLOCK
 62
     0
100
AcDbPoint
 10
535.990294
 20
310.877631
 30
0.0
  0
POINT
  5
2BEC2
100
AcDbEntity
  8
DEFPOINTS
  6
BYBLOCK
 62
     0
100
AcDbPoint
 10
232.972704
 20
310.877631
 30
0.0
  0
ENDBLK
  5
2BEC3
100
AcDbEntity
  8
0
100
AcDbBlockEnd
  0
BLOCK
  5
2BEC6
100
AcDbEntity
  8
0
100
AcDbBlockBegin
  2
*D8
 70
     1
 10
0.0
 20
0.0
 30
0.0
  3
*D8
  1

  0
LINE
  5
2BEC7
100
AcDbEntity
  8
0
  6
BYBLOCK
 62
     0
100
AcDbLine
 10
1516.379525
 20
372.670749
 30
0.0
 11
294.678221
 21
372.670749
 31
0.0
  0
LINE
  5
2BEC8
100
AcDbEntity
  8
0
  6
BYBLOCK
 62
     0
100
AcDbLine
 10
1516.379525
 20
310.877631
 30
0.0
 11
294.678221
 21
310.877631
 31
0.0
  0
LINE
  5
2BEC9
100
AcDbEntity
  8
0
  6
BYBLOCK
 62
     0
100
AcDbLine
 10
295.678221
 20
412.670749
 30
0.0
 11
295.678221
 21
452.670749
 31
0.0
  0
LINE
  5
2BECA
100
AcDbEntity
  8
0
  6
BYBLOCK
 62
     0
100
AcDbLine
 10
295.678221
 20
270.877631
 30
0.0
 11
295.678221
 21
158.020488
 31
0.0
  0
SOLID
  5
2BECB
100
AcDbEntity
  8
0
  6
BYBLOCK
 62
     0
100
AcDbTrace
 10
289.011554
 20
412.670749
 30
0.0
 11
302.344887
 21
412.670749
 31
0.0
 12
295.678221
 22
372.670749
 32
0.0
 13
295.678221
 23
372.670749
 33
0.0
  0
SOLID
  5
2BECC
100
AcDbEntity
  8
0
  6
BYBLOCK
 62
     0
100
AcDbTrace
 10
289.011554
 20
270.877631
 30
0.0
 11
302.344887
 21
270.877631
 31
0.0
 12
295.678221
 22
310.877631
 32
0.0
 13
295.678221
 23
310.877631
 33
0.0
  0
MTEXT
  5
2BECD
100
AcDbEntity
  8
0
  6
BYBLOCK
 62
     0
100
AcDbMText
 10
270.678221
 20
194.449059
 30
0.0
 40
40.0
 41
0.0
 71
     5
 72
     1
  1
\A1;60
  7
ROMANS
 11
0.0
 21
1.0
 31
0.0
  0
POINT
  5
2BECE
100
AcDbEntity
  8
DEFPOINTS
  6
BYBLOCK
 62
     0
100
AcDbPoint
 10
1516.479525
 20
372.670749
 30
0.0
  0
POINT
  5
2BECF
100
AcDbEntity
  8
DEFPOINTS
  6
BYBLOCK
 62
     0
100
AcDbPoint
 10
1516.479525
 20
310.877631
 30
0.0
  0
POINT
  5
2BED0
100
AcDbEntity
  8
DEFPOINTS
  6
BYBLOCK
 62
     0
100
AcDbPoint
 10
295.678221
 20
310.877631
 30
0.0
  0
ENDBLK
  5
2BED1
100
AcDbEntity
  8
0
100
AcDbBlockEnd
  0
BLOCK
  5
2BED4
100
AcDbEntity
  8
0
100
AcDbBlockBegin
  2
*D9
 70
     1
 10
0.0
 20
0.0
 30
0.0
  3
*D9
  1

  0
LINE
  5
2BED5
100
AcDbEntity
  8
0
  6
BYBLOCK
 62
     0
100
AcDbLine
 10
1726.090294
 20
710.877631
 30
0.0
 11
2594.468696
 21
710.877631
 31
0.0
  0
LINE
  5
2BED6
100
AcDbEntity
  8
0
  6
BYBLOCK
 62
     0
100
AcDbLine
 10
1726.090294
 20
310.877631
 30
0.0
 11
2594.468696
 21
310.877631
 31
0.0
  0
LINE
  5
2BED7
100
AcDbEntity
  8
0
  6
BYBLOCK
 62
     0
100
AcDbLine
 10
2593.468696
 20
670.877631
 30
0.0
 11
2593.468696
 21
350.877631
 31
0.0
  0
SOLID
  5
2BED8
100
AcDbEntity
  8
0
  6
BYBLOCK
 62
     0
100
AcDbTrace
 10
2586.802029
 20
670.877631
 30
0.0
 11
2600.135363
 21
670.877631
 31
0.0
 12
2593.468696
 22
710.877631
 32
0.0
 13
2593.468696
 23
710.877631
 33
0.0
  0
SOLID
  5
2BED9
100
AcDbEntity
  8
0
  6
BYBLOCK
 62
     0
100
AcDbTrace
 10
2586.802029
 20
350.877631
 30
0.0
 11
2600.135363
 21
350.877631
 31
0.0
 12
2593.468696
 22
310.877631
 32
0.0
 13
2593.468696
 23
310.877631
 33
0.0
  0
MTEXT
  5
2BEDA
100
AcDbEntity
  8
0
  6
BYBLOCK
 62
     0
100
AcDbMText
 10
2568.468696
 20
510.877631
 30
0.0
 40
40.0
 41
0.0
 71
     5
 72
     1
  1
\A1;400
  7
ROMANS
 11
0.0
 21
1.0
 31
0.0
  0
POINT
  5
2BEDB
100
AcDbEntity
  8
DEFPOINTS
  6
BYBLOCK
 62
     0
100
AcDbPoint
 10
1725.990294
 20
710.877631
 30
0.0
  0
POINT
  5
2BEDC
100
AcDbEntity
  8
DEFPOINTS
  6
BYBLOCK
 62
     0
100
AcDbPoint
 10
1725.990294
 20
310.877631
 30
0.0
  0
POINT
  5
2BEDD
100
AcDbEntity
  8
DEFPOINTS
  6
BYBLOCK
 62
     0
100
AcDbPoint
 10
2593.468696
 20
310.877631
 30
0.0
  0
ENDBLK
  5
2BEDE
100
AcDbEntity
  8
0
100
AcDbBlockEnd
  0
BLOCK
  5
2BEE1
100
AcDbEntity
  8
0
100
AcDbBlockBegin
  2
*D10
 70
     1
 10
0.0
 20
0.0
 30
0.0
  3
*D10
  1

  0
LINE
  5
2BEE2
100
AcDbEntity
  8
0
  6
BYBLOCK
 62
     0
100
AcDbLine
 10
1725.990294
 20
710.777631
 30
0.0
 11
1725.990294
 21
100.518039
 31
0.0
  0
LINE
  5
2BEE3
100
AcDbEntity
  8
0
  6
BYBLOCK
 62
     0
100
AcDbLine
 10
2325.990294
 20
710.777631
 30
0.0
 11
2325.990294
 21
100.518039
 31
0.0
  0
LINE
  5
2BEE4
100
AcDbEntity
  8
0
  6
BYBLOCK
 62
     0
100
AcDbLine
 10
1765.990294
 20
101.518039
 30
0.0
 11
2285.990294
 21
101.518039
 31
0.0
  0
SOLID
  5
2BEE5
100
AcDbEntity
  8
0
  6
BYBLOCK
 62
     0
100
AcDbTrace
 10
1765.990294
 20
108.184706
 30
0.0
 11
1765.990294
 21
94.851372
 31
0.0
 12
1725.990294
 22
101.518039
 32
0.0
 13
1725.990294
 23
101.518039
 33
0.0
  0
SOLID
  5
2BEE6
100
AcDbEntity
  8
0
  6
BYBLOCK
 62
     0
100
AcDbTrace
 10
2285.990294
 20
108.184706
 30
0.0
 11
2285.990294
 21
94.851372
 31
0.0
 12
2325.990294
 22
101.518039
 32
0.0
 13
2325.990294
 23
101.518039
 33
0.0
  0
MTEXT
  5
2BEE7
100
AcDbEntity
  8
0
  6
BYBLOCK
 62
     0
100
AcDbMText
 10
2025.990294
 20
126.518039
 30
0.0
 40
40.0
 41
0.0
 71
     5
 72
     1
  1
\A1;600
  7
ROMANS
  0
POINT
  5
2BEE8
100
AcDbEntity
  8
DEFPOINTS
  6
BYBLOCK
 62
     0
100
AcDbPoint
 10
1725.990294
 20
710.877631
 30
0.0
  0
POINT
  5
2BEE9
100
AcDbEntity
  8
DEFPOINTS
  6
BYBLOCK
 62
     0
100
AcDbPoint
 10
2325.990294
 20
710.877631
 30
0.0
  0
POINT
  5
2BEEA
100
AcDbEntity
  8
DEFPOINTS
  6
BYBLOCK
 62
     0
100
AcDbPoint
 10
2325.990294
 20
101.518039
 30
0.0
  0
ENDBLK
  5
2BEEB
100
AcDbEntity
  8
0
100
AcDbBlockEnd
  0
ENDSEC
  0
SECTION
  2
ENTITIES
  0
TEXT
  5
57E
100
AcDbEntity
  8
STP
100
AcDbText
 10
3176.88633
 20
3076.174185
 30
0.0
 40
15.0
  1

  7
ROMANS8
100
AcDbText
  0
TEXT
  5
57F
100
AcDbEntity
  8
STP
100
AcDbText
 10
3171.88633
 20
3051.888471
 30
0.0
 40
15.0
  1

  7
ROMANS8
100
AcDbText
  0
TEXT
  5
580
100
AcDbEntity
  8
STP
100
AcDbText
 10
7420.0
 20
1461.928571
 30
0.0
 40
15.0
  1

  7
ROMANS8
100
AcDbText
  0
TEXT
  5
594
100
AcDbEntity
  8
STP
100
AcDbText
 10
3143.430004
 20
173.378193
 30
0.0
 40
15.0
  1

  7
ROMANS8
100
AcDbText
  0
TEXT
  5
59D
100
AcDbEntity
  8
STP
100
AcDbText
 10
3148.430004
 20
197.663907
 30
0.0
 40
15.0
  1

  7
ROMANS8
100
AcDbText
  0
TEXT
  5
784
100
AcDbEntity
  8
STP
100
AcDbText
 10
5188.5
 20
2119.285714
 30
0.0
 40
3.0
  1

  7
ROMANS8
100
AcDbText
  0
TEXT
  5
816
100
AcDbEntity
  8
STP
100
AcDbText
 10
7234.88633
 20
3543.674185
 30
0.0
 40
15.0
  1

  7
ROMANS8
100
AcDbText
  0
TEXT
  5
817
100
AcDbEntity
  8
STP
100
AcDbText
 10
7229.88633
 20
3519.388471
 30
0.0
 40
15.0
  1

  7
ROMANS8
100
AcDbText
  0
TEXT
  5
819
100
AcDbEntity
  8
STP
100
AcDbText
 10
11478.0
 20
1929.428571
 30
0.0
 40
15.0
  1

  7
ROMANS8
100
AcDbText
  0
TEXT
  5
81A
100
AcDbEntity
  8
STP
100
AcDbText
 10
7201.430004
 20
640.878193
 30
0.0
 40
15.0
  1

  7
ROMANS8
100
AcDbText
  0
TEXT
  5
81B
100
AcDbEntity
  8
STP
100
AcDbText
 10
7206.430004
 20
665.163907
 30
0.0
 40
15.0
  1

  7
ROMANS8
100
AcDbText
  0
TEXT
  5
81C
100
AcDbEntity
  8
STP
100
AcDbText
 10
9246.5
 20
2586.785714
 30
0.0
 40
3.0
  1

  7
ROMANS8
100
AcDbText
  0
TEXT
  5
828
100
AcDbEntity
  8
BEMASS
100
AcDbText
 10
5430.0
 20
1612.5
 30
0.0
 40
50.0
  1

  7
ROMANS8
100
AcDbText
  0
TEXT
  5
84C
100
AcDbEntity
  8
BEMASS
100
AcDbText
 10
8966.5
 20
494.642857
 30
0.0
 40
3.0
  1

  7
ROMANS8
100
AcDbText
  0
TEXT
  5
84D
100
AcDbEntity
  8
BEMASS
100
AcDbText
 10
11920.0
 20
2121.714286
 30
0.0
 40
15.0
  1

  7
ROMANS8
100
AcDbText
  0
TEXT
  5
8A3
100
AcDbEntity
  8
STP
100
AcDbText
 10
7585.38633
 20
4451.674185
 30
0.0
 40
15.0
  1

  7
ROMANS8
100
AcDbText
  0
TEXT
  5
8A4
100
AcDbEntity
  8
STP
100
AcDbText
 10
7580.38633
 20
4427.388471
 30
0.0
 40
15.0
  1

  7
ROMANS8
100
AcDbText
  0
TEXT
  5
8A5
100
AcDbEntity
  8
STP
100
AcDbText
 10
11828.5
 20
2837.428571
 30
0.0
 40
15.0
  1

  7
ROMANS8
100
AcDbText
  0
TEXT
  5
8A6
100
AcDbEntity
  8
STP
100
AcDbText
 10
7551.930004
 20
1548.878193
 30
0.0
 40
15.0
  1

  7
ROMANS8
100
AcDbText
  0
TEXT
  5
8A7
100
AcDbEntity
  8
STP
100
AcDbText
 10
7556.930004
 20
1573.163907
 30
0.0
 40
15.0
  1

  7
ROMANS8
100
AcDbText
  0
TEXT
  5
8A8
100
AcDbEntity
  8
STP
100
AcDbText
 10
9597.0
 20
3494.785714
 30
0.0
 40
3.0
  1

  7
ROMANS8
100
AcDbText
  0
TEXT
  5
8A9
100
AcDbEntity
  8
BEMASS
100
AcDbText
 10
5780.5
 20
2520.5
 30
0.0
 40
50.0
  1

  7
ROMANS8
100
AcDbText
  0
TEXT
  5
8AA
100
AcDbEntity
  8
BEMASS
100
AcDbText
 10
9317.0
 20
1402.642857
 30
0.0
 40
3.0
  1

  7
ROMANS8
100
AcDbText
  0
TEXT
  5
8AB
100
AcDbEntity
  8
BEMASS
100
AcDbText
 10
12270.5
 20
3029.714286
 30
0.0
 40
15.0
  1

  7
ROMANS8
100
AcDbText
  0
TEXT
  5
8AC
100
AcDbEntity
  8
STP
100
AcDbText
 10
4558.496544
 20
4186.485617
 30
0.0
 40
3.0
  1

  7
ROMANS8
100
AcDbText
  0
TEXT
  5
8AE
100
AcDbEntity
  8
STP
100
AcDbText
 10
3173.430004
 20
175.878193
 30
0.0
 40
15.0
  1

  7
ROMANS8
100
AcDbText
  0
MTEXT
  5
2DA5
100
AcDbEntity
  8
TT
100
AcDbMText
 10
5135.260306
 20
473.97467
 30
0.0
 40
25.0
 41
0.0
 71
     7
 72
     5
  1

  7
ROMANS
  0
MTEXT
  5
52CD
100
AcDbEntity
  8
BEMASS
100
AcDbMText
 10
1688.61597
 20
602.398747
 30
0.0
 40
25.0
 41
0.0
 71
     9
 72
     5
  1
 
  7
ROMANS
  0
MTEXT
  5
52CF
100
AcDbEntity
  8
BEMASS
100
AcDbMText
 10
1516.241319
 20
557.57345
 30
0.0
 40
25.0
 41
0.0
 71
     9
 72
     5
  1

  7
ROMANS
  0
MTEXT
  5
52DC
100
AcDbEntity
  8
BEMASS
100
AcDbMText
 10
2091.285852
 20
923.072766
 30
0.0
 40
25.0
 41
0.0
 71
     7
 72
     5
  1

  7
ROMANS
  0
MTEXT
  5
52E1
100
AcDbEntity
  8
BEMASS
100
AcDbMText
 10
145.94008
 20
925.800371
 30
0.0
 40
25.0
 41
0.0
 71
     9
 72
     5
  1

  7
ROMANS
  0
MTEXT
  5
743F
100
AcDbEntity
  8
BEMASS
100
AcDbMText
 10
4713.493219
 20
485.438336
 30
0.0
 40
6.0
 41
0.435431
 71
     1
 72
     5
  1

  7
ILKA2
  0
MTEXT
  5
7440
100
AcDbEntity
  8
BEMASS
100
AcDbMText
 10
4657.405921
 20
408.287592
 30
0.0
 40
5.0
 41
0.0
 71
     7
 72
     5
  1

  7
ILKA2
  0
INSERT
  5
7441
100
AcDbEntity
  8
ASHADE
 62
     1
100
AcDbBlockReference
  2
AVE_RENDER
 10
4295.963717
 20
3.4375
 30
0.0
1001
AVE_RENDER
1002
{
1070
     6
1000
Pref
1070
    30
1070
    20
1070
     1
1070
     0
1000

1070
    10
1070
     1
1070
    30
1040
1.0
1070
     1
1040
0.3
1040
0.7
1040
0.0
1040
10.0
1010
-1.0
1020
-1.0
1030
-1.0
1040
0.3
1070
    49
1070
     0
1070
     0
1010
1.0
1020
1.0
1030
1.0
1040
45.0
1070
     1
1070
     0
1000
WCS
1040
0.0
1002
}
  0
INSERT
  5
7442
100
AcDbEntity
  8
ASHADE
 62
     3
100
AcDbBlockReference
  2
AVE_RENDER
 10
4295.963717
 20
3.4375
 30
0.0
1001
AVE_RENDER
1002
{
1070
     0
1000
Full Opt
1070
     0
1070
     1
1070
     1
1070
     1
1070
     0
1070
     0
1070
     0
1070
     1
1070
     1
1040
0.0001
1040
0.0001
1002
}
  0
INSERT
  5
7443
100
AcDbEntity
  8
ASHADE
 62
     4
100
AcDbBlockReference
  2
AVE_RENDER
 10
4295.963717
 20
3.4375
 30
0.0
1001
AVE_RENDER
1002
{
1070
     0
1000
Quick Opt
1070
     0
1070
     1
1070
     1
1070
     1
1070
     0
1070
     0
1070
     1
1002
}
  0
INSERT
  5
7444
100
AcDbEntity
  8
ASHADE
 62
     5
100
AcDbBlockReference
  2
AVE_RENDER
 10
4295.963717
 20
3.4375
 30
0.0
1001
AVE_RENDER
1002
{
1070
     1
1000
Scanl Opt
1070
     2
1070
     0
1070
     2
1040
2.0
1040
4.0
1070
     0
1070
     1
1070
     0
1040
0.03
1002
}
  0
INSERT
  5
7445
100
AcDbEntity
  8
ASHADE
 62
     6
100
AcDbBlockReference
  2
AVE_RENDER
 10
4295.963717
 20
3.4375
 30
0.0
1001
AVE_RENDER
1002
{
1070
     2
1000
Raytr Opt
1070
     2
1070
     0
1070
     2
1040
2.0
1040
4.0
1070
     0
1070
     1
1070
     1
1040
0.03
1070
     3
1040
0.03
1002
}
  0
INSERT
  5
7446
100
AcDbEntity
  8
ASHADE
 62
     7
100
AcDbBlockReference
  2
AVE_RENDER
 10
4295.963717
 20
3.4375
 30
0.0
1001
AVE_RENDER
1002
{
1070
     0
1000
RFile Opt
1070
     5
1070
   640
1070
   480
1070
 10000
1070
     3
1070
    32
1070
    24
1070
     0
1070
     0
1070
     0
1070
     1
1070
     0
1070
     0
1070
     0
1002
}
  0
INSERT
  5
7447
100
AcDbEntity
  8
ASHADE
 62
     8
100
AcDbBlockReference
  2
AVE_RENDER
 10
4295.963717
 20
3.4375
 30
0.0
1001
AVE_RENDER
1002
{
1070
     0
1000
Fog Opt
1070
     0
1070
     0
1040
0.0
1040
1.0
1040
0.0
1040
1.0
1010
0.5
1020
0.5
1030
0.5
1002
}
  0
INSERT
  5
7448
100
AcDbEntity
  8
ASHADE
 62
     9
100
AcDbBlockReference
  2
AVE_RENDER
 10
4295.963717
 20
3.4375
 30
0.0
1001
AVE_RENDER
1002
{
1070
     0
1000
BG Opt
1070
     0
1070
     1
1010
0.0
1020
0.0
1030
0.0
1010
1.0
1020
0.0
1030
0.0
1010
0.0
1020
1.0
1030
0.0
1010
0.0
1020
0.0
1030
1.0
1040
0.5
1040
0.33
1040
0.0
1000

1070
     1
1000

1070
     1
1070
     1
1040
1.0
1040
1.0
1040
0.0
1040
0.0
1070
     0
1002
}
  0
INSERT
  5
7449
100
AcDbEntity
  8
ASHADE
 62
     1
100
AcDbBlockReference
  2
AVE_GLOBAL
 10
4295.963717
 20
3.4375
 30
0.0
1001
AVE_MATERIAL
1002
{
1000
*GLOBAL*
1000
1
1000
Globales Material.
1002
{
1002
}
1002
{
1070
    63
1002
{
1002
{
1010
-1.0
1020
-1.0
1030
-1.0
1002
}
1040
0.1
1000

1040
0.0
1002
{
1002
}
1040
0.0
1002
{
1002
}
1040
0.0
1002
}
1002
{
1002
{
1010
-1.0
1020
-1.0
1030
-1.0
1002
}
1040
0.7
1000

1040
0.0
1002
{
1002
}
1040
0.0
1002
{
1002
}
1040
0.0
1002
}
1002
{
1002
{
1010
-1.0
1020
-1.0
1030
-1.0
1002
}
1040
0.2
1000

1040
0.0
1002
{
1002
}
1040
0.0
1002
{
1002
}
1040
0.0
1002
}
1002
{
1070
     0
1002
{
1070
     1
1002
{
1040
1.0
1040
1.0
1000

1040
0.0
1002
{
1002
}
1040
0.0
1002
{
1002
}
1040
0.0
1002
}
1002
}
1040
1.0
1040
0.0
1040
0.0
1002
}
1002
{
1040
1.0
1040
1.0
1000

1040
0.0
1002
{
1002
}
1040
0.0
1002
{
1002
}
1040
0.0
1002
}
1002
{
1040
0.5
1040
1.0
1000

1040
0.0
1002
{
1002
}
1040
0.0
1002
{
1002
}
1040
0.0
1002
}
1002
{
1070
     0
1040
0.0
1002
{
1002
}
1040
1.0
1002
{
1002
}
1040
0.0
1002
}
1002
{
1040
0.0
1002
{
1002
{
1010
0.0
1020
0.0
1030
0.0
1002
}
1040
1.0
1000

1040
0.0
1002
{
1002
}
1040
0.0
1002
{
1002
}
1040
0.0
1002
}
1002
}
1002
{
1002
{
1070
     1
1002
{
1040
0.0
1040
1.0
1000

1040
0.0
1002
{
1002
}
1040
0.0
1002
{
1002
}
1040
0.0
1002
}
1002
}
1040
0.0
1002
{
1002
}
1010
1.0
1020
0.0
1030
0.0
1010
0.0
1020
1.0
1030
0.0
1010
0.0
1020
0.0
1030
1.0
1070
     0
1002
}
1002
{
1002
{
1040
1.0
1040
1.0
1002
{
1070
     1
1002
{
1040
1.0
1040
1.0
1000

1040
0.0
1002
{
1002
}
1040
0.0
1002
{
1002
}
1040
0.0
1002
}
1002
}
1002
}
1070
     0
1040
0.0
1002
{
1002
}
1002
}
1002
{
1002
}
1002
}
1002
{
1071
        3
1070
     3
1070
     0
1002
{
1070
     2
1070
     0
1070
     0
1040
0.0
1002
}
1070
     0
1070
     2
1002
{
1002
}
1002
}
1002
{
1040
8030.0
1040
190.300003
1040
0.305
1040
228.0
1040
545.0
1040
14.0
1040
17.4
1040
0.456
1002
}
1002
}
  0
MTEXT
  5
744A
100
AcDbEntity
  8
BEMASS
100
AcDbMText
 10
7791.963717
 20
3536.4375
 30
0.0
 40
20.0
 41
0.0
 71
     7
 72
     5
  1
\P
  7
ROMANS
  0
MTEXT
  5
744C
100
AcDbEntity
  8
BEMASS
100
AcDbMText
 10
7135.463717
 20
2950.4375
 30
0.0
 40
20.0
 41
0.0
 71
     9
 72
     5
  1
\P
  7
ROMANS
  0
TEXT
  5
744F
100
AcDbEntity
  8
STP
100
AcDbText
 10
14835.850047
 20
4217.611685
 30
0.0
 40
15.0
  1

  7
ROMANS8
100
AcDbText
  0
TEXT
  5
7450
100
AcDbEntity
  8
STP
100
AcDbText
 10
14830.850047
 20
4193.325971
 30
0.0
 40
15.0
  1

  7
ROMANS8
100
AcDbText
  0
TEXT
  5
7451
100
AcDbEntity
  8
STP
100
AcDbText
 10
19078.963717
 20
2603.366071
 30
0.0
 40
15.0
  1

  7
ROMANS8
100
AcDbText
  0
TEXT
  5
7452
100
AcDbEntity
  8
STP
100
AcDbText
 10
14802.39372
 20
1314.815693
 30
0.0
 40
15.0
  1

  7
ROMANS8
100
AcDbText
  0
TEXT
  5
7453
100
AcDbEntity
  8
STP
100
AcDbText
 10
14807.39372
 20
1339.101407
 30
0.0
 40
15.0
  1

  7
ROMANS8
100
AcDbText
  0
TEXT
  5
7454
100
AcDbEntity
  8
STP
100
AcDbText
 10
16847.463717
 20
3260.723214
 30
0.0
 40
3.0
  1

  7
ROMANS8
100
AcDbText
  0
TEXT
  5
7456
100
AcDbEntity
  8
STP
100
AcDbText
 10
25544.963717
 20
1264.9375
 30
0.0
 40
15.0
  1

  7
ROMANS8
100
AcDbText
  0
TEXT
  5
7457
100
AcDbEntity
  8
STP
100
AcDbText
 10
25544.963717
 20
4114.9375
 30
0.0
 40
15.0
  1

  7
ROMANS8
100
AcDbText
  0
TEXT
  5
7458
100
AcDbEntity
  8
STP
100
AcDbText
 10
30564.963717
 20
7787.4375
 30
0.0
 40
15.0
  1

  7
ROMANS8
100
AcDbText
  0
TEXT
  5
7459
100
AcDbEntity
  8
STP
100
AcDbText
 10
30290.463717
 20
7787.4375
 30
0.0
 40
15.0
  1

  7
ROMANS8
100
AcDbText
  0
TEXT
  5
745A
100
AcDbEntity
  8
STP
100
AcDbText
 10
16982.776217
 20
1356.3125
 30
0.0
 40
15.375
  1

  7
ROMANS8
100
AcDbText
  0
TEXT
  5
745B
100
AcDbEntity
  8
STP
100
AcDbText
 10
16982.776217
 20
1336.357143
 30
0.0
 40
15.375
  1

  7
ROMANS8
100
AcDbText
  0
TEXT
  5
745C
100
AcDbEntity
  8
STP
100
AcDbText
 10
16982.776217
 20
1316.214286
 30
0.0
 40
15.375
  1

  7
ROMANS8
100
AcDbText
  0
TEXT
  5
745D
100
AcDbEntity
  8
STP
100
AcDbText
 10
16982.776217
 20
1296.196428
 30
0.0
 40
15.375
  1

  7
ROMANS8
100
AcDbText
  0
TEXT
  5
745E
100
AcDbEntity
  8
STP
100
AcDbText
 10
16982.776217
 20
1276.241071
 30
0.0
 40
15.375
  1

  7
ROMANS8
100
AcDbText
  0
TEXT
  5
745F
100
AcDbEntity
  8
STP
100
AcDbText
 10
21257.850047
 20
4202.111685
 30
0.0
 40
15.0
  1

  7
ROMANS8
100
AcDbText
  0
TEXT
  5
7460
100
AcDbEntity
  8
STP
100
AcDbText
 10
21252.850047
 20
4177.825971
 30
0.0
 40
15.0
  1

  7
ROMANS8
100
AcDbText
  0
TEXT
  5
7461
100
AcDbEntity
  8
STP
100
AcDbText
 10
25500.963717
 20
2587.866071
 30
0.0
 40
15.0
  1

  7
ROMANS8
100
AcDbText
  0
TEXT
  5
7462
100
AcDbEntity
  8
STP
100
AcDbText
 10
21224.39372
 20
1299.315693
 30
0.0
 40
15.0
  1

  7
ROMANS8
100
AcDbText
  0
TEXT
  5
7463
100
AcDbEntity
  8
STP
100
AcDbText
 10
21229.39372
 20
1323.601407
 30
0.0
 40
15.0
  1

  7
ROMANS8
100
AcDbText
  0
TEXT
  5
7464
100
AcDbEntity
  8
STP
100
AcDbText
 10
23269.463717
 20
3245.223214
 30
0.0
 40
3.0
  1

  7
ROMANS8
100
AcDbText
  0
TEXT
  5
7465
100
AcDbEntity
  8
BEMASS
100
AcDbText
 10
19452.963717
 20
2270.9375
 30
0.0
 40
50.0
  1

  7
ROMANS8
100
AcDbText
  0
TEXT
  5
7466
100
AcDbEntity
  8
BEMASS
100
AcDbText
 10
22989.463717
 20
1153.080357
 30
0.0
 40
3.0
  1

  7
ROMANS8
100
AcDbText
  0
TEXT
  5
7467
100
AcDbEntity
  8
BEMASS
100
AcDbText
 10
25942.963717
 20
2780.151786
 30
0.0
 40
15.0
  1

  7
ROMANS8
100
AcDbText
  0
TEXT
  5
7468
100
AcDbEntity
  8
STP
100
AcDbText
 10
18230.96026
 20
3936.923117
 30
0.0
 40
3.0
  1

  7
ROMANS8
100
AcDbText
  0
TEXT
  5
746D
100
AcDbEntity
  8
STP
100
AcDbText
 10
17662.838717
 20
1274.0625
 30
0.0
 40
15.375
  1

  7
ROMANS8
100
AcDbText
  0
TEXT
  5
746E
100
AcDbEntity
  8
STP
100
AcDbText
 10
21465.350047
 20
6696.111685
 30
0.0
 40
15.0
  1

  7
ROMANS8
100
AcDbText
  0
TEXT
  5
746F
100
AcDbEntity
  8
STP
100
AcDbText
 10
21460.350047
 20
6671.825971
 30
0.0
 40
15.0
  1

  7
ROMANS8
100
AcDbText
  0
TEXT
  5
7470
100
AcDbEntity
  8
STP
100
AcDbText
 10
25708.463717
 20
5081.866071
 30
0.0
 40
15.0
  1

  7
ROMANS8
100
AcDbText
  0
TEXT
  5
7471
100
AcDbEntity
  8
STP
100
AcDbText
 10
21431.89372
 20
3793.315693
 30
0.0
 40
15.0
  1

  7
ROMANS8
100
AcDbText
  0
TEXT
  5
7472
100
AcDbEntity
  8
STP
100
AcDbText
 10
21436.89372
 20
3817.601407
 30
0.0
 40
15.0
  1

  7
ROMANS8
100
AcDbText
  0
TEXT
  5
7473
100
AcDbEntity
  8
STP
100
AcDbText
 10
23476.963717
 20
5739.223214
 30
0.0
 40
3.0
  1

  7
ROMANS8
100
AcDbText
  0
TEXT
  5
7474
100
AcDbEntity
  8
BEMASS
100
AcDbText
 10
19660.463717
 20
4764.9375
 30
0.0
 40
50.0
  1

  7
ROMANS8
100
AcDbText
  0
TEXT
  5
7475
100
AcDbEntity
  8
BEMASS
100
AcDbText
 10
23196.963717
 20
3647.080357
 30
0.0
 40
3.0
  1

  7
ROMANS8
100
AcDbText
  0
TEXT
  5
7476
100
AcDbEntity
  8
BEMASS
100
AcDbText
 10
26150.463717
 20
5274.151786
 30
0.0
 40
15.0
  1

  7
ROMANS8
100
AcDbText
  0
TEXT
  5
7477
100
AcDbEntity
  8
STP
100
AcDbText
 10
18438.46026
 20
6430.923117
 30
0.0
 40
3.0
  1

  7
ROMANS8
100
AcDbText
  0
TEXT
  5
7478
100
AcDbEntity
  8
STP
100
AcDbText
 10
28432.350047
 20
9458.111685
 30
0.0
 40
15.0
  1

  7
ROMANS8
100
AcDbText
  0
TEXT
  5
7479
100
AcDbEntity
  8
STP
100
AcDbText
 10
28427.350047
 20
9433.825971
 30
0.0
 40
15.0
  1

  7
ROMANS8
100
AcDbText
  0
TEXT
  5
747A
100
AcDbEntity
  8
STP
100
AcDbText
 10
32675.463717
 20
7843.866071
 30
0.0
 40
15.0
  1

  7
ROMANS8
100
AcDbText
  0
TEXT
  5
747B
100
AcDbEntity
  8
STP
100
AcDbText
 10
28398.89372
 20
6555.315693
 30
0.0
 40
15.0
  1

  7
ROMANS8
100
AcDbText
  0
TEXT
  5
747C
100
AcDbEntity
  8
STP
100
AcDbText
 10
28403.89372
 20
6579.601407
 30
0.0
 40
15.0
  1

  7
ROMANS8
100
AcDbText
  0
TEXT
  5
747D
100
AcDbEntity
  8
STP
100
AcDbText
 10
30443.963717
 20
8501.223214
 30
0.0
 40
3.0
  1

  7
ROMANS8
100
AcDbText
  0
TEXT
  5
747E
100
AcDbEntity
  8
STP
100
AcDbText
 10
39141.463717
 20
6505.4375
 30
0.0
 40
15.0
  1

  7
ROMANS8
100
AcDbText
  0
TEXT
  5
747F
100
AcDbEntity
  8
STP
100
AcDbText
 10
39141.463717
 20
9355.4375
 30
0.0
 40
15.0
  1

  7
ROMANS8
100
AcDbText
  0
TEXT
  5
7480
100
AcDbEntity
  8
STP
100
AcDbText
 10
44161.463717
 20
13027.9375
 30
0.0
 40
15.0
  1

  7
ROMANS8
100
AcDbText
  0
TEXT
  5
7481
100
AcDbEntity
  8
STP
100
AcDbText
 10
43886.963717
 20
13027.9375
 30
0.0
 40
15.0
  1

  7
ROMANS8
100
AcDbText
  0
TEXT
  5
7482
100
AcDbEntity
  8
STP
100
AcDbText
 10
34854.350047
 20
9442.611685
 30
0.0
 40
15.0
  1

  7
ROMANS8
100
AcDbText
  0
TEXT
  5
7483
100
AcDbEntity
  8
STP
100
AcDbText
 10
34849.350047
 20
9418.325971
 30
0.0
 40
15.0
  1

  7
ROMANS8
100
AcDbText
  0
TEXT
  5
7484
100
AcDbEntity
  8
STP
100
AcDbText
 10
39097.463717
 20
7828.366071
 30
0.0
 40
15.0
  1

  7
ROMANS8
100
AcDbText
  0
TEXT
  5
7485
100
AcDbEntity
  8
STP
100
AcDbText
 10
34820.89372
 20
6539.815693
 30
0.0
 40
15.0
  1

  7
ROMANS8
100
AcDbText
  0
TEXT
  5
7486
100
AcDbEntity
  8
STP
100
AcDbText
 10
34825.89372
 20
6564.101407
 30
0.0
 40
15.0
  1

  7
ROMANS8
100
AcDbText
  0
TEXT
  5
7487
100
AcDbEntity
  8
STP
100
AcDbText
 10
36865.963717
 20
8485.723214
 30
0.0
 40
3.0
  1

  7
ROMANS8
100
AcDbText
  0
TEXT
  5
7488
100
AcDbEntity
  8
BEMASS
100
AcDbText
 10
33049.463717
 20
7511.4375
 30
0.0
 40
50.0
  1

  7
ROMANS8
100
AcDbText
  0
TEXT
  5
7489
100
AcDbEntity
  8
BEMASS
100
AcDbText
 10
36585.963717
 20
6393.580357
 30
0.0
 40
3.0
  1

  7
ROMANS8
100
AcDbText
  0
TEXT
  5
748A
100
AcDbEntity
  8
BEMASS
100
AcDbText
 10
39539.463717
 20
8020.651786
 30
0.0
 40
15.0
  1

  7
ROMANS8
100
AcDbText
  0
TEXT
  5
748B
100
AcDbEntity
  8
STP
100
AcDbText
 10
31827.46026
 20
9177.423117
 30
0.0
 40
3.0
  1

  7
ROMANS8
100
AcDbText
  0
TEXT
  5
748C
100
AcDbEntity
  8
STP
100
AcDbText
 10
28639.850047
 20
8348.611685
 30
0.0
 40
15.0
  1

  7
ROMANS8
100
AcDbText
  0
TEXT
  5
748D
100
AcDbEntity
  8
STP
100
AcDbText
 10
28634.850047
 20
8324.325971
 30
0.0
 40
15.0
  1

  7
ROMANS8
100
AcDbText
  0
TEXT
  5
748E
100
AcDbEntity
  8
STP
100
AcDbText
 10
32882.963717
 20
6734.366071
 30
0.0
 40
15.0
  1

  7
ROMANS8
100
AcDbText
  0
TEXT
  5
748F
100
AcDbEntity
  8
STP
100
AcDbText
 10
28606.39372
 20
5445.815693
 30
0.0
 40
15.0
  1

  7
ROMANS8
100
AcDbText
  0
TEXT
  5
7490
100
AcDbEntity
  8
STP
100
AcDbText
 10
28611.39372
 20
5470.101407
 30
0.0
 40
15.0
  1

  7
ROMANS8
100
AcDbText
  0
TEXT
  5
7491
100
AcDbEntity
  8
BEMASS
100
AcDbText
 10
25015.57545
 20
13413.950231
 30
0.0
 40
20.0
  1

  7
ROMANS8
100
AcDbText
  0
TEXT
  5
7492
100
AcDbEntity
  8
STP
100
AcDbText
 10
28805.350047
 20
12888.611685
 30
0.0
 40
15.0
  1

  7
ROMANS8
100
AcDbText
  0
TEXT
  5
7493
100
AcDbEntity
  8
STP
100
AcDbText
 10
28800.350047
 20
12864.325971
 30
0.0
 40
15.0
  1

  7
ROMANS8
100
AcDbText
  0
TEXT
  5
7494
100
AcDbEntity
  8
STP
100
AcDbText
 10
33048.463717
 20
11274.366071
 30
0.0
 40
15.0
  1

  7
ROMANS8
100
AcDbText
  0
TEXT
  5
7495
100
AcDbEntity
  8
STP
100
AcDbText
 10
28771.89372
 20
9985.815693
 30
0.0
 40
15.0
  1

  7
ROMANS8
100
AcDbText
  0
TEXT
  5
7496
100
AcDbEntity
  8
STP
100
AcDbText
 10
28776.89372
 20
10010.101407
 30
0.0
 40
15.0
  1

  7
ROMANS8
100
AcDbText
  0
TEXT
  5
7497
100
AcDbEntity
  8
STP
100
AcDbText
 10
32883.350047
 20
12891.611685
 30
0.0
 40
15.0
  1

  7
ROMANS8
100
AcDbText
  0
TEXT
  5
7498
100
AcDbEntity
  8
STP
100
AcDbText
 10
32878.350047
 20
12867.325971
 30
0.0
 40
15.0
  1

  7
ROMANS8
100
AcDbText
  0
TEXT
  5
7499
100
AcDbEntity
  8
STP
100
AcDbText
 10
37126.463717
 20
11277.366071
 30
0.0
 40
15.0
  1

  7
ROMANS8
100
AcDbText
  0
TEXT
  5
749A
100
AcDbEntity
  8
STP
100
AcDbText
 10
32849.89372
 20
9988.815693
 30
0.0
 40
15.0
  1

  7
ROMANS8
100
AcDbText
  0
TEXT
  5
749B
100
AcDbEntity
  8
STP
100
AcDbText
 10
32854.89372
 20
10013.101407
 30
0.0
 40
15.0
  1

  7
ROMANS8
100
AcDbText
  0
TEXT
  5
749C
100
AcDbEntity
  8
STP
100
AcDbText
 10
34894.963717
 20
11934.723214
 30
0.0
 40
3.0
  1

  7
ROMANS8
100
AcDbText
  0
TEXT
  5
749D
100
AcDbEntity
  8
STP
100
AcDbText
 10
36941.350047
 20
13359.111685
 30
0.0
 40
15.0
  1

  7
ROMANS8
100
AcDbText
  0
TEXT
  5
749E
100
AcDbEntity
  8
STP
100
AcDbText
 10
36936.350047
 20
13334.825971
 30
0.0
 40
15.0
  1

  7
ROMANS8
100
AcDbText
  0
TEXT
  5
749F
100
AcDbEntity
  8
STP
100
AcDbText
 10
41184.463717
 20
11744.866071
 30
0.0
 40
15.0
  1

  7
ROMANS8
100
AcDbText
  0
TEXT
  5
74A0
100
AcDbEntity
  8
STP
100
AcDbText
 10
36907.89372
 20
10456.315693
 30
0.0
 40
15.0
  1

  7
ROMANS8
100
AcDbText
  0
TEXT
  5
74A1
100
AcDbEntity
  8
STP
100
AcDbText
 10
36912.89372
 20
10480.601407
 30
0.0
 40
15.0
  1

  7
ROMANS8
100
AcDbText
  0
TEXT
  5
74A2
100
AcDbEntity
  8
STP
100
AcDbText
 10
38952.963717
 20
12402.223214
 30
0.0
 40
3.0
  1

  7
ROMANS8
100
AcDbText
  0
TEXT
  5
74A3
100
AcDbEntity
  8
BEMASS
100
AcDbText
 10
35136.463717
 20
11427.9375
 30
0.0
 40
50.0
  1

  7
ROMANS8
100
AcDbText
  0
TEXT
  5
74A4
100
AcDbEntity
  8
BEMASS
100
AcDbText
 10
38672.963717
 20
10310.080357
 30
0.0
 40
3.0
  1

  7
ROMANS8
100
AcDbText
  0
TEXT
  5
74A5
100
AcDbEntity
  8
BEMASS
100
AcDbText
 10
41626.463717
 20
11937.151786
 30
0.0
 40
15.0
  1

  7
ROMANS8
100
AcDbText
  0
TEXT
  5
74A6
100
AcDbEntity
  8
BEMASS
100
AcDbText
 10
25388.57545
 20
12613.950231
 30
0.0
 40
20.0
  1

  7
ROMANS8
100
AcDbText
  0
INSERT
  5
74A7
100
AcDbEntity
  8
ASHADE
 62
     1
100
AcDbBlockReference
  2
AVE_RENDER
 10
30122.463717
 20
13353.4375
 30
0.0
1001
AVE_RENDER
1002
{
1070
     2
1000
Pref
1070
    30
1070
    20
1070
     0
1070
     0
1000

1070
    10
1070
     0
1070
    30
1040
1.0
1070
     1
1040
0.3
1040
0.7
1040
0.0
1040
10.0
1010
-1.0
1020
-1.0
1030
-1.0
1040
0.3
1070
    49
1002
}
  0
INSERT
  5
74A8
100
AcDbEntity
  8
ASHADE
 62
     3
100
AcDbBlockReference
  2
AVE_RENDER
 10
30122.463717
 20
13353.4375
 30
0.0
1001
AVE_RENDER
1002
{
1070
     0
1000
Full Opt
1070
     0
1070
     1
1070
     1
1070
     1
1070
     0
1070
     0
1070
     0
1070
     1
1070
     1
1040
0.0001
1040
0.0001
1002
}
  0
INSERT
  5
74A9
100
AcDbEntity
  8
ASHADE
 62
     4
100
AcDbBlockReference
  2
AVE_RENDER
 10
30122.463717
 20
13353.4375
 30
0.0
1001
AVE_RENDER
1002
{
1070
     0
1000
Quick Opt
1070
     0
1070
     1
1070
     1
1070
     1
1070
     0
1070
     0
1070
     1
1002
}
  0
TEXT
  5
74AC
100
AcDbEntity
  8
STP
100
AcDbText
 10
7064.508086
 20
4671.455415
 30
0.0
 40
30.0
  1
 
  7
ROMANS8
100
AcDbText
  0
TEXT
  5
74AD
100
AcDbEntity
  8
STP
100
AcDbText
 10
7064.508086
 20
4622.883986
 30
0.0
 40
30.0
  1
 
  7
ROMANS8
100
AcDbText
  0
TEXT
  5
74AE
100
AcDbEntity
  8
STP
100
AcDbText
 10
7064.508086
 20
4574.312558
 30
0.0
 40
30.0
  1
 
  7
ROMANS8
100
AcDbText
  0
TEXT
  5
74AF
100
AcDbEntity
  8
STP
100
AcDbText
 10
10374.508086
 20
6631.455415
 30
0.0
 40
30.0
  1
 
  7
ROMANS8
100
AcDbText
  0
TEXT
  5
74B0
100
AcDbEntity
  8
STP
100
AcDbText
 10
10374.508086
 20
6582.883986
 30
0.0
 40
30.0
  1
 
  7
ROMANS8
100
AcDbText
  0
TEXT
  5
74B1
100
AcDbEntity
  8
STP
100
AcDbText
 10
10374.508086
 20
6534.312558
 30
0.0
 40
30.0
  1
 
  7
ROMANS8
100
AcDbText
  0
TEXT
  5
74B2
100
AcDbEntity
  8
STP
100
AcDbText
 10
7073.619207
 20
9756.000035
 30
0.0
 40
30.0
  1
 
  7
ROMANS8
100
AcDbText
  0
TEXT
  5
74B3
100
AcDbEntity
  8
STP
100
AcDbText
 10
7073.619207
 20
9707.428607
 30
0.0
 40
30.0
  1
 
  7
ROMANS8
100
AcDbText
  0
TEXT
  5
74B4
100
AcDbEntity
  8
STP
100
AcDbText
 10
7073.619207
 20
9658.857178
 30
0.0
 40
30.0
  1
 
  7
ROMANS8
100
AcDbText
  0
TEXT
  5
74B5
100
AcDbEntity
  8
STP
100
AcDbText
 10
7818.508086
 20
4933.026844
 30
0.0
 40
15.0
  1

  7
ROMANS8
100
AcDbText
  0
TEXT
  5
79C0
100
AcDbEntity
  8
BEMASS
100
AcDbText
 10
158.225145
 20
2894.576678
 30
0.0
 40
30.0
  1

  7
ROMANS8
100
AcDbText
  0
TEXT
  5
79C1
100
AcDbEntity
  8
BEMASS
100
AcDbText
 10
20061.963717
 20
8130.4375
 30
0.0
 40
30.0
  1

  7
ROMANS8
100
AcDbText
  0
TEXT
  5
79C2
100
AcDbEntity
  8
BEMASS
100
AcDbText
 10
498.225145
 20
2894.576678
 30
0.0
 40
30.0
  1

  7
ROMANS8
100
AcDbText
  0
TEXT
  5
79E1
100
AcDbEntity
  8
BEMASS
100
AcDbText
 10
298.225145
 20
2894.576678
 30
0.0
 40
30.0
  1

  7
ROMANS8
100
AcDbText
  0
TEXT
  5
7BCD
100
AcDbEntity
  8
STP
100
AcDbText
 10
13996.689031
 20
10385.542437
 30
0.0
 40
3.075
  1

  7
ROMANS8
100
AcDbText
  0
TEXT
  5
7BCE
100
AcDbEntity
  8
STP
100
AcDbText
 10
13996.689031
 20
10381.551366
 30
0.0
 40
3.075
  1

  7
ROMANS8
100
AcDbText
  0
TEXT
  5
7BCF
100
AcDbEntity
  8
STP
100
AcDbText
 10
13996.689031
 20
10377.522794
 30
0.0
 40
3.075
  1

  7
ROMANS8
100
AcDbText
  0
TEXT
  5
7BD0
100
AcDbEntity
  8
STP
100
AcDbText
 10
13996.689031
 20
10373.519223
 30
0.0
 40
3.075
  1

  7
ROMANS8
100
AcDbText
  0
TEXT
  5
7BD1
100
AcDbEntity
  8
STP
100
AcDbText
 10
13996.689031
 20
10369.528151
 30
0.0
 40
3.075
  1

  7
ROMANS8
100
AcDbText
  0
TEXT
  5
7BD2
100
AcDbEntity
  8
STP
100
AcDbText
 10
12184.521544
 20
7689.501041
 30
0.0
 40
3.0
  1

  7
ROMANS8
100
AcDbText
  0
TEXT
  5
7BD3
100
AcDbEntity
  8
STP
100
AcDbText
 10
12184.521544
 20
7683.643898
 30
0.0
 40
3.0
  1

  7
ROMANS8
100
AcDbText
  0
TEXT
  5
7BDC
100
AcDbEntity
  8
STP
100
AcDbText
 10
14124.689031
 20
13235.542437
 30
0.0
 40
3.075
  1

  7
ROMANS8
100
AcDbText
  0
TEXT
  5
7BDD
100
AcDbEntity
  8
STP
100
AcDbText
 10
14124.689031
 20
13231.551366
 30
0.0
 40
3.075
  1

  7
ROMANS8
100
AcDbText
  0
TEXT
  5
7BDE
100
AcDbEntity
  8
STP
100
AcDbText
 10
14124.689031
 20
13227.522794
 30
0.0
 40
3.075
  1

  7
ROMANS8
100
AcDbText
  0
TEXT
  5
7BDF
100
AcDbEntity
  8
STP
100
AcDbText
 10
14124.689031
 20
13223.519223
 30
0.0
 40
3.075
  1

  7
ROMANS8
100
AcDbText
  0
TEXT
  5
7BE0
100
AcDbEntity
  8
STP
100
AcDbText
 10
14124.689031
 20
13219.528151
 30
0.0
 40
3.075
  1

  7
ROMANS8
100
AcDbText
  0
TEXT
  5
7BE1
100
AcDbEntity
  8
STP
100
AcDbText
 10
12312.521544
 20
10539.501041
 30
0.0
 40
3.0
  1

  7
ROMANS8
100
AcDbText
  0
TEXT
  5
7BE2
100
AcDbEntity
  8
STP
100
AcDbText
 10
12312.521544
 20
10533.643898
 30
0.0
 40
3.0
  1

  7
ROMANS8
100
AcDbText
  0
TEXT
  5
7DF2
100
AcDbEntity
  8
STP
100
AcDbText
 10
15318.973913
 20
9895.877939
 30
0.0
 40
15.0
  1

  7
ROMANS8
100
AcDbText
  0
TEXT
  5
7DF3
100
AcDbEntity
  8
STP
100
AcDbText
 10
15418.973913
 20
9895.877939
 30
0.0
 40
15.0
  1

  7
ROMANS8
100
AcDbText
  0
TEXT
  5
7DF4
100
AcDbEntity
  8
STP
100
AcDbText
 10
15218.973913
 20
9895.877939
 30
0.0
 40
15.0
  1

  7
ROMANS8
100
AcDbText
  0
TEXT
  5
7DF5
100
AcDbEntity
  8
STP
100
AcDbText
 10
15218.973913
 20
9865.877939
 30
0.0
 40
15.0
  1

  7
ROMANS8
100
AcDbText
  0
TEXT
  5
7DF6
100
AcDbEntity
  8
STP
100
AcDbText
 10
15318.973913
 20
9865.877939
 30
0.0
 40
15.0
  1

  7
ROMANS8
100
AcDbText
  0
TEXT
  5
7DF7
100
AcDbEntity
  8
STP
100
AcDbText
 10
15418.973913
 20
9865.877939
 30
0.0
 40
15.0
  1

  7
ROMANS8
100
AcDbText
  0
TEXT
  5
7DF8
100
AcDbEntity
  8
STP
100
AcDbText
 10
14094.689031
 20
14380.542437
 30
0.0
 40
3.075
  1

  7
ROMANS8
100
AcDbText
  0
TEXT
  5
7DF9
100
AcDbEntity
  8
STP
100
AcDbText
 10
14094.689031
 20
14376.551366
 30
0.0
 40
3.075
  1

  7
ROMANS8
100
AcDbText
  0
TEXT
  5
7DFA
100
AcDbEntity
  8
STP
100
AcDbText
 10
14094.689031
 20
14372.522794
 30
0.0
 40
3.075
  1

  7
ROMANS8
100
AcDbText
  0
TEXT
  5
7DFB
100
AcDbEntity
  8
STP
100
AcDbText
 10
14094.689031
 20
14368.519223
 30
0.0
 40
3.075
  1

  7
ROMANS8
100
AcDbText
  0
TEXT
  5
7DFC
100
AcDbEntity
  8
STP
100
AcDbText
 10
14094.689031
 20
14364.528151
 30
0.0
 40
3.075
  1

  7
ROMANS8
100
AcDbText
  0
TEXT
  5
7DFD
100
AcDbEntity
  8
STP
100
AcDbText
 10
12282.521544
 20
11684.501041
 30
0.0
 40
3.0
  1

  7
ROMANS8
100
AcDbText
  0
TEXT
  5
7DFE
100
AcDbEntity
  8
STP
100
AcDbText
 10
12282.521544
 20
11678.643898
 30
0.0
 40
3.0
  1

  7
ROMANS8
100
AcDbText
  0
MTEXT
  5
106CD
100
AcDbEntity
  8
BEMASS
100
AcDbMText
 10
3462.210744
 20
7200.761358
 30
0.0
 40
25.0
 41
0.0
 71
     7
 72
     5
  1

  7
ROMANS
  0
MTEXT
  5
106CF
100
AcDbEntity
  8
BEMASS
100
AcDbMText
 10
3689.386439
 20
7200.761358
 30
0.0
 40
25.0
 41
0.0
 71
     9
 72
     5
  1

  7
ROMANS
  0
TEXT
  5
117E1
100
AcDbEntity
  8
STP
100
AcDbText
 10
12262.716925
 20
11802.116815
 30
0.0
 40
15.0
  1

  7
ROMANS8
100
AcDbText
  0
TEXT
  5
117E2
100
AcDbEntity
  8
STP
100
AcDbText
 10
12257.716925
 20
11777.831101
 30
0.0
 40
15.0
  1

  7
ROMANS8
100
AcDbText
  0
TEXT
  5
117E3
100
AcDbEntity
  8
STP
100
AcDbText
 10
16505.830595
 20
10187.871202
 30
0.0
 40
15.0
  1

  7
ROMANS8
100
AcDbText
  0
TEXT
  5
117E4
100
AcDbEntity
  8
STP
100
AcDbText
 10
12229.260598
 20
8899.320823
 30
0.0
 40
15.0
  1

  7
ROMANS8
100
AcDbText
  0
TEXT
  5
117E5
100
AcDbEntity
  8
STP
100
AcDbText
 10
12234.260598
 20
8923.606537
 30
0.0
 40
15.0
  1

  7
ROMANS8
100
AcDbText
  0
TEXT
  5
117E6
100
AcDbEntity
  8
STP
100
AcDbText
 10
14274.330595
 20
10845.228345
 30
0.0
 40
3.0
  1

  7
ROMANS8
100
AcDbText
  0
TEXT
  5
117E7
100
AcDbEntity
  8
BEMASS
100
AcDbText
 10
10457.830595
 20
9870.94263
 30
0.0
 40
50.0
  1

  7
ROMANS8
100
AcDbText
  0
TEXT
  5
117E8
100
AcDbEntity
  8
BEMASS
100
AcDbText
 10
13994.330595
 20
8753.085487
 30
0.0
 40
3.0
  1

  7
ROMANS8
100
AcDbText
  0
TEXT
  5
117E9
100
AcDbEntity
  8
BEMASS
100
AcDbText
 10
16947.830595
 20
10380.156916
 30
0.0
 40
15.0
  1

  7
ROMANS8
100
AcDbText
  0
TEXT
  5
117EA
100
AcDbEntity
  8
STP
100
AcDbText
 10
9235.827138
 20
11536.928247
 30
0.0
 40
3.0
  1

  7
ROMANS8
100
AcDbText
  0
TEXT
  5
117EB
100
AcDbEntity
  8
STP
100
AcDbText
 10
19229.716925
 20
14564.116815
 30
0.0
 40
15.0
  1

  7
ROMANS8
100
AcDbText
  0
TEXT
  5
117EC
100
AcDbEntity
  8
STP
100
AcDbText
 10
19224.716925
 20
14539.831101
 30
0.0
 40
15.0
  1

  7
ROMANS8
100
AcDbText
  0
TEXT
  5
117ED
100
AcDbEntity
  8
STP
100
AcDbText
 10
23472.830595
 20
12949.871202
 30
0.0
 40
15.0
  1

  7
ROMANS8
100
AcDbText
  0
TEXT
  5
117EE
100
AcDbEntity
  8
STP
100
AcDbText
 10
19196.260598
 20
11661.320823
 30
0.0
 40
15.0
  1

  7
ROMANS8
100
AcDbText
  0
TEXT
  5
117EF
100
AcDbEntity
  8
STP
100
AcDbText
 10
19201.260598
 20
11685.606537
 30
0.0
 40
15.0
  1

  7
ROMANS8
100
AcDbText
  0
TEXT
  5
117F0
100
AcDbEntity
  8
STP
100
AcDbText
 10
21241.330595
 20
13607.228345
 30
0.0
 40
3.0
  1

  7
ROMANS8
100
AcDbText
  0
TEXT
  5
117F1
100
AcDbEntity
  8
STP
100
AcDbText
 10
29938.830595
 20
11611.44263
 30
0.0
 40
15.0
  1

  7
ROMANS8
100
AcDbText
  0
TEXT
  5
117F2
100
AcDbEntity
  8
STP
100
AcDbText
 10
29938.830595
 20
14461.44263
 30
0.0
 40
15.0
  1

  7
ROMANS8
100
AcDbText
  0
TEXT
  5
117F3
100
AcDbEntity
  8
STP
100
AcDbText
 10
34958.830595
 20
18133.94263
 30
0.0
 40
15.0
  1

  7
ROMANS8
100
AcDbText
  0
TEXT
  5
117F4
100
AcDbEntity
  8
STP
100
AcDbText
 10
34684.330595
 20
18133.94263
 30
0.0
 40
15.0
  1

  7
ROMANS8
100
AcDbText
  0
TEXT
  5
117F5
100
AcDbEntity
  8
STP
100
AcDbText
 10
25651.716925
 20
14548.616815
 30
0.0
 40
15.0
  1

  7
ROMANS8
100
AcDbText
  0
TEXT
  5
117F6
100
AcDbEntity
  8
STP
100
AcDbText
 10
25646.716925
 20
14524.331101
 30
0.0
 40
15.0
  1

  7
ROMANS8
100
AcDbText
  0
TEXT
  5
117F7
100
AcDbEntity
  8
STP
100
AcDbText
 10
29894.830595
 20
12934.371202
 30
0.0
 40
15.0
  1

  7
ROMANS8
100
AcDbText
  0
TEXT
  5
117F8
100
AcDbEntity
  8
STP
100
AcDbText
 10
25618.260598
 20
11645.820823
 30
0.0
 40
15.0
  1

  7
ROMANS8
100
AcDbText
  0
TEXT
  5
117F9
100
AcDbEntity
  8
STP
100
AcDbText
 10
25623.260598
 20
11670.106537
 30
0.0
 40
15.0
  1

  7
ROMANS8
100
AcDbText
  0
TEXT
  5
117FA
100
AcDbEntity
  8
STP
100
AcDbText
 10
27663.330595
 20
13591.728345
 30
0.0
 40
3.0
  1

  7
ROMANS8
100
AcDbText
  0
TEXT
  5
117FB
100
AcDbEntity
  8
BEMASS
100
AcDbText
 10
23846.830595
 20
12617.44263
 30
0.0
 40
50.0
  1

  7
ROMANS8
100
AcDbText
  0
TEXT
  5
117FC
100
AcDbEntity
  8
BEMASS
100
AcDbText
 10
27383.330595
 20
11499.585487
 30
0.0
 40
3.0
  1

  7
ROMANS8
100
AcDbText
  0
TEXT
  5
117FD
100
AcDbEntity
  8
BEMASS
100
AcDbText
 10
30336.830595
 20
13126.656916
 30
0.0
 40
15.0
  1

  7
ROMANS8
100
AcDbText
  0
TEXT
  5
117FE
100
AcDbEntity
  8
STP
100
AcDbText
 10
22624.827138
 20
14283.428247
 30
0.0
 40
3.0
  1

  7
ROMANS8
100
AcDbText
  0
TEXT
  5
117FF
100
AcDbEntity
  8
STP
100
AcDbText
 10
19437.216925
 20
13454.616815
 30
0.0
 40
15.0
  1

  7
ROMANS8
100
AcDbText
  0
TEXT
  5
11800
100
AcDbEntity
  8
STP
100
AcDbText
 10
19432.216925
 20
13430.331101
 30
0.0
 40
15.0
  1

  7
ROMANS8
100
AcDbText
  0
TEXT
  5
11801
100
AcDbEntity
  8
STP
100
AcDbText
 10
23680.330595
 20
11840.371202
 30
0.0
 40
15.0
  1

  7
ROMANS8
100
AcDbText
  0
TEXT
  5
11802
100
AcDbEntity
  8
STP
100
AcDbText
 10
19403.760598
 20
10551.820823
 30
0.0
 40
15.0
  1

  7
ROMANS8
100
AcDbText
  0
TEXT
  5
11803
100
AcDbEntity
  8
STP
100
AcDbText
 10
19408.760598
 20
10576.106537
 30
0.0
 40
15.0
  1

  7
ROMANS8
100
AcDbText
  0
TEXT
  5
11804
100
AcDbEntity
  8
BEMASS
100
AcDbText
 10
15812.942328
 20
18519.955362
 30
0.0
 40
20.0
  1

  7
ROMANS8
100
AcDbText
  0
TEXT
  5
11805
100
AcDbEntity
  8
STP
100
AcDbText
 10
19602.716925
 20
17994.616815
 30
0.0
 40
15.0
  1

  7
ROMANS8
100
AcDbText
  0
TEXT
  5
11806
100
AcDbEntity
  8
STP
100
AcDbText
 10
19597.716925
 20
17970.331101
 30
0.0
 40
15.0
  1

  7
ROMANS8
100
AcDbText
  0
TEXT
  5
11807
100
AcDbEntity
  8
STP
100
AcDbText
 10
23845.830595
 20
16380.371202
 30
0.0
 40
15.0
  1

  7
ROMANS8
100
AcDbText
  0
TEXT
  5
11808
100
AcDbEntity
  8
STP
100
AcDbText
 10
19569.260598
 20
15091.820823
 30
0.0
 40
15.0
  1

  7
ROMANS8
100
AcDbText
  0
TEXT
  5
11809
100
AcDbEntity
  8
STP
100
AcDbText
 10
19574.260598
 20
15116.106537
 30
0.0
 40
15.0
  1

  7
ROMANS8
100
AcDbText
  0
TEXT
  5
1180A
100
AcDbEntity
  8
STP
100
AcDbText
 10
23680.716925
 20
17997.616815
 30
0.0
 40
15.0
  1

  7
ROMANS8
100
AcDbText
  0
TEXT
  5
1180B
100
AcDbEntity
  8
STP
100
AcDbText
 10
23675.716925
 20
17973.331101
 30
0.0
 40
15.0
  1

  7
ROMANS8
100
AcDbText
  0
TEXT
  5
1180C
100
AcDbEntity
  8
STP
100
AcDbText
 10
27923.830595
 20
16383.371202
 30
0.0
 40
15.0
  1

  7
ROMANS8
100
AcDbText
  0
TEXT
  5
1180D
100
AcDbEntity
  8
STP
100
AcDbText
 10
23647.260598
 20
15094.820823
 30
0.0
 40
15.0
  1

  7
ROMANS8
100
AcDbText
  0
TEXT
  5
1180E
100
AcDbEntity
  8
STP
100
AcDbText
 10
23652.260598
 20
15119.106537
 30
0.0
 40
15.0
  1

  7
ROMANS8
100
AcDbText
  0
TEXT
  5
1180F
100
AcDbEntity
  8
STP
100
AcDbText
 10
25692.330595
 20
17040.728345
 30
0.0
 40
3.0
  1

  7
ROMANS8
100
AcDbText
  0
TEXT
  5
11810
100
AcDbEntity
  8
STP
100
AcDbText
 10
27738.716925
 20
18465.116815
 30
0.0
 40
15.0
  1

  7
ROMANS8
100
AcDbText
  0
TEXT
  5
11811
100
AcDbEntity
  8
STP
100
AcDbText
 10
27733.716925
 20
18440.831101
 30
0.0
 40
15.0
  1

  7
ROMANS8
100
AcDbText
  0
TEXT
  5
11812
100
AcDbEntity
  8
STP
100
AcDbText
 10
31981.830595
 20
16850.871202
 30
0.0
 40
15.0
  1

  7
ROMANS8
100
AcDbText
  0
TEXT
  5
11813
100
AcDbEntity
  8
STP
100
AcDbText
 10
27705.260598
 20
15562.320823
 30
0.0
 40
15.0
  1

  7
ROMANS8
100
AcDbText
  0
TEXT
  5
11814
100
AcDbEntity
  8
STP
100
AcDbText
 10
27710.260598
 20
15586.606537
 30
0.0
 40
15.0
  1

  7
ROMANS8
100
AcDbText
  0
TEXT
  5
11815
100
AcDbEntity
  8
STP
100
AcDbText
 10
29750.330595
 20
17508.228345
 30
0.0
 40
3.0
  1

  7
ROMANS8
100
AcDbText
  0
TEXT
  5
11816
100
AcDbEntity
  8
BEMASS
100
AcDbText
 10
25933.830595
 20
16533.94263
 30
0.0
 40
50.0
  1

  7
ROMANS8
100
AcDbText
  0
TEXT
  5
11817
100
AcDbEntity
  8
BEMASS
100
AcDbText
 10
29470.330595
 20
15416.085487
 30
0.0
 40
3.0
  1

  7
ROMANS8
100
AcDbText
  0
TEXT
  5
11818
100
AcDbEntity
  8
BEMASS
100
AcDbText
 10
32423.830595
 20
17043.156916
 30
0.0
 40
15.0
  1

  7
ROMANS8
100
AcDbText
  0
TEXT
  5
11819
100
AcDbEntity
  8
BEMASS
100
AcDbText
 10
16185.942328
 20
17719.955362
 30
0.0
 40
20.0
  1

  7
ROMANS8
100
AcDbText
  0
INSERT
  5
1185B
100
AcDbEntity
  8
ASHADE
 62
     1
100
AcDbBlockReference
  2
AVE_RENDER
 10
20919.830595
 20
18459.44263
 30
0.0
1001
AVE_RENDER
1002
{
1070
     2
1000
Pref
1070
    30
1070
    20
1070
     0
1070
     0
1000

1070
    10
1070
     0
1070
    30
1040
1.0
1070
     1
1040
0.3
1040
0.7
1040
0.0
1040
10.0
1010
-1.0
1020
-1.0
1030
-1.0
1040
0.3
1070
    49
1002
}
  0
INSERT
  5
1185C
100
AcDbEntity
  8
ASHADE
 62
     3
100
AcDbBlockReference
  2
AVE_RENDER
 10
20919.830595
 20
18459.44263
 30
0.0
1001
AVE_RENDER
1002
{
1070
     0
1000
Full Opt
1070
     0
1070
     1
1070
     1
1070
     1
1070
     0
1070
     0
1070
     0
1070
     1
1070
     1
1040
0.0001
1040
0.0001
1002
}
  0
INSERT
  5
1185D
100
AcDbEntity
  8
ASHADE
 62
     4
100
AcDbBlockReference
  2
AVE_RENDER
 10
20919.830595
 20
18459.44263
 30
0.0
1001
AVE_RENDER
1002
{
1070
     0
1000
Quick Opt
1070
     0
1070
     1
1070
     1
1070
     1
1070
     0
1070
     0
1070
     1
1002
}
  0
TEXT
  5
127DA
100
AcDbEntity
  8
STP
100
AcDbText
 10
15247.399525
 20
5072.613213
 30
0.0
 40
15.0
  1

  7
ROMANS8
100
AcDbText
  0
TEXT
  5
127DB
100
AcDbEntity
  8
STP
100
AcDbText
 10
15242.399525
 20
5048.327499
 30
0.0
 40
15.0
  1

  7
ROMANS8
100
AcDbText
  0
TEXT
  5
127DC
100
AcDbEntity
  8
STP
100
AcDbText
 10
19490.513195
 20
3458.3676
 30
0.0
 40
15.0
  1

  7
ROMANS8
100
AcDbText
  0
TEXT
  5
127DD
100
AcDbEntity
  8
STP
100
AcDbText
 10
15213.943199
 20
2169.817221
 30
0.0
 40
15.0
  1

  7
ROMANS8
100
AcDbText
  0
TEXT
  5
127DE
100
AcDbEntity
  8
STP
100
AcDbText
 10
15218.943199
 20
2194.102935
 30
0.0
 40
15.0
  1

  7
ROMANS8
100
AcDbText
  0
TEXT
  5
127EC
100
AcDbEntity
  8
STP
100
AcDbText
 10
17259.013195
 20
4115.724742
 30
0.0
 40
3.0
  1

  7
ROMANS8
100
AcDbText
  0
TEXT
  5
127ED
100
AcDbEntity
  8
STP
100
AcDbText
 10
25956.513195
 20
2119.939028
 30
0.0
 40
15.0
  1

  7
ROMANS8
100
AcDbText
  0
TEXT
  5
127EE
100
AcDbEntity
  8
STP
100
AcDbText
 10
25956.513195
 20
4969.939028
 30
0.0
 40
15.0
  1

  7
ROMANS8
100
AcDbText
  0
TEXT
  5
127EF
100
AcDbEntity
  8
STP
100
AcDbText
 10
30976.513195
 20
8642.439028
 30
0.0
 40
15.0
  1

  7
ROMANS8
100
AcDbText
  0
TEXT
  5
127F0
100
AcDbEntity
  8
STP
100
AcDbText
 10
30702.013195
 20
8642.439028
 30
0.0
 40
15.0
  1

  7
ROMANS8
100
AcDbText
  0
TEXT
  5
127F1
100
AcDbEntity
  8
STP
100
AcDbText
 10
17394.325695
 20
2211.314028
 30
0.0
 40
15.375
  1

  7
ROMANS8
100
AcDbText
  0
TEXT
  5
127F2
100
AcDbEntity
  8
STP
100
AcDbText
 10
17394.325695
 20
2191.358671
 30
0.0
 40
15.375
  1

  7
ROMANS8
100
AcDbText
  0
TEXT
  5
127F3
100
AcDbEntity
  8
STP
100
AcDbText
 10
17394.325695
 20
2171.215814
 30
0.0
 40
15.375
  1

  7
ROMANS8
100
AcDbText
  0
TEXT
  5
127F4
100
AcDbEntity
  8
STP
100
AcDbText
 10
17394.325695
 20
2151.197957
 30
0.0
 40
15.375
  1

  7
ROMANS8
100
AcDbText
  0
TEXT
  5
127F5
100
AcDbEntity
  8
STP
100
AcDbText
 10
17394.325695
 20
2131.2426
 30
0.0
 40
15.375
  1

  7
ROMANS8
100
AcDbText
  0
TEXT
  5
127F6
100
AcDbEntity
  8
STP
100
AcDbText
 10
21669.399525
 20
5057.113213
 30
0.0
 40
15.0
  1

  7
ROMANS8
100
AcDbText
  0
TEXT
  5
127F7
100
AcDbEntity
  8
STP
100
AcDbText
 10
21664.399525
 20
5032.827499
 30
0.0
 40
15.0
  1

  7
ROMANS8
100
AcDbText
  0
TEXT
  5
127F8
100
AcDbEntity
  8
STP
100
AcDbText
 10
25912.513195
 20
3442.8676
 30
0.0
 40
15.0
  1

  7
ROMANS8
100
AcDbText
  0
TEXT
  5
127F9
100
AcDbEntity
  8
STP
100
AcDbText
 10
21635.943199
 20
2154.317221
 30
0.0
 40
15.0
  1

  7
ROMANS8
100
AcDbText
  0
TEXT
  5
127FA
100
AcDbEntity
  8
STP
100
AcDbText
 10
21640.943199
 20
2178.602935
 30
0.0
 40
15.0
  1

  7
ROMANS8
100
AcDbText
  0
TEXT
  5
127FB
100
AcDbEntity
  8
STP
100
AcDbText
 10
23681.013195
 20
4100.224742
 30
0.0
 40
3.0
  1

  7
ROMANS8
100
AcDbText
  0
TEXT
  5
127FC
100
AcDbEntity
  8
BEMASS
100
AcDbText
 10
19864.513195
 20
3125.939028
 30
0.0
 40
50.0
  1

  7
ROMANS8
100
AcDbText
  0
TEXT
  5
127FD
100
AcDbEntity
  8
BEMASS
100
AcDbText
 10
23401.013195
 20
2008.081885
 30
0.0
 40
3.0
  1

  7
ROMANS8
100
AcDbText
  0
TEXT
  5
127FE
100
AcDbEntity
  8
BEMASS
100
AcDbText
 10
26354.513195
 20
3635.153314
 30
0.0
 40
15.0
  1

  7
ROMANS8
100
AcDbText
  0
TEXT
  5
127FF
100
AcDbEntity
  8
STP
100
AcDbText
 10
18642.509739
 20
4791.924645
 30
0.0
 40
3.0
  1

  7
ROMANS8
100
AcDbText
  0
TEXT
  5
12A86
100
AcDbEntity
  8
STP
100
AcDbText
 10
18355.064758
 20
5084.273328
 30
0.0
 40
15.0
  1

  7
ROMANS8
100
AcDbText
  0
TEXT
  5
12A87
100
AcDbEntity
  8
STP
100
AcDbText
 10
18350.064758
 20
5059.987614
 30
0.0
 40
15.0
  1

  7
ROMANS8
100
AcDbText
  0
TEXT
  5
12A88
100
AcDbEntity
  8
STP
100
AcDbText
 10
22598.178428
 20
3470.027714
 30
0.0
 40
15.0
  1

  7
ROMANS8
100
AcDbText
  0
TEXT
  5
12A89
100
AcDbEntity
  8
STP
100
AcDbText
 10
18321.608432
 20
2181.477335
 30
0.0
 40
15.0
  1

  7
ROMANS8
100
AcDbText
  0
TEXT
  5
12A8A
100
AcDbEntity
  8
STP
100
AcDbText
 10
18326.608432
 20
2205.76305
 30
0.0
 40
15.0
  1

  7
ROMANS8
100
AcDbText
  0
TEXT
  5
12A98
100
AcDbEntity
  8
STP
100
AcDbText
 10
20366.678428
 20
4127.384857
 30
0.0
 40
3.0
  1

  7
ROMANS8
100
AcDbText
  0
TEXT
  5
12A99
100
AcDbEntity
  8
STP
100
AcDbText
 10
29064.178428
 20
2131.599143
 30
0.0
 40
15.0
  1

  7
ROMANS8
100
AcDbText
  0
TEXT
  5
12A9A
100
AcDbEntity
  8
STP
100
AcDbText
 10
29064.178428
 20
4981.599143
 30
0.0
 40
15.0
  1

  7
ROMANS8
100
AcDbText
  0
TEXT
  5
12A9B
100
AcDbEntity
  8
STP
100
AcDbText
 10
34084.178428
 20
8654.099143
 30
0.0
 40
15.0
  1

  7
ROMANS8
100
AcDbText
  0
TEXT
  5
12A9C
100
AcDbEntity
  8
STP
100
AcDbText
 10
33809.678428
 20
8654.099143
 30
0.0
 40
15.0
  1

  7
ROMANS8
100
AcDbText
  0
TEXT
  5
12A9D
100
AcDbEntity
  8
STP
100
AcDbText
 10
20501.990928
 20
2222.974143
 30
0.0
 40
15.375
  1

  7
ROMANS8
100
AcDbText
  0
TEXT
  5
12A9E
100
AcDbEntity
  8
STP
100
AcDbText
 10
20501.990928
 20
2203.018786
 30
0.0
 40
15.375
  1

  7
ROMANS8
100
AcDbText
  0
TEXT
  5
12A9F
100
AcDbEntity
  8
STP
100
AcDbText
 10
20501.990928
 20
2182.875928
 30
0.0
 40
15.375
  1

  7
ROMANS8
100
AcDbText
  0
TEXT
  5
12AA0
100
AcDbEntity
  8
STP
100
AcDbText
 10
20501.990928
 20
2162.858071
 30
0.0
 40
15.375
  1

  7
ROMANS8
100
AcDbText
  0
TEXT
  5
12AA1
100
AcDbEntity
  8
STP
100
AcDbText
 10
20501.990928
 20
2142.902714
 30
0.0
 40
15.375
  1

  7
ROMANS8
100
AcDbText
  0
TEXT
  5
12AA2
100
AcDbEntity
  8
STP
100
AcDbText
 10
24777.064758
 20
5068.773328
 30
0.0
 40
15.0
  1

  7
ROMANS8
100
AcDbText
  0
TEXT
  5
12AA3
100
AcDbEntity
  8
STP
100
AcDbText
 10
24772.064758
 20
5044.487614
 30
0.0
 40
15.0
  1

  7
ROMANS8
100
AcDbText
  0
TEXT
  5
12AA4
100
AcDbEntity
  8
STP
100
AcDbText
 10
29020.178428
 20
3454.527714
 30
0.0
 40
15.0
  1

  7
ROMANS8
100
AcDbText
  0
TEXT
  5
12AA5
100
AcDbEntity
  8
STP
100
AcDbText
 10
24743.608432
 20
2165.977335
 30
0.0
 40
15.0
  1

  7
ROMANS8
100
AcDbText
  0
TEXT
  5
12AA6
100
AcDbEntity
  8
STP
100
AcDbText
 10
24748.608432
 20
2190.26305
 30
0.0
 40
15.0
  1

  7
ROMANS8
100
AcDbText
  0
TEXT
  5
12AA7
100
AcDbEntity
  8
STP
100
AcDbText
 10
26788.678428
 20
4111.884857
 30
0.0
 40
3.0
  1

  7
ROMANS8
100
AcDbText
  0
TEXT
  5
12AA8
100
AcDbEntity
  8
BEMASS
100
AcDbText
 10
22972.178428
 20
3137.599143
 30
0.0
 40
50.0
  1

  7
ROMANS8
100
AcDbText
  0
TEXT
  5
12AA9
100
AcDbEntity
  8
BEMASS
100
AcDbText
 10
26508.678428
 20
2019.742
 30
0.0
 40
3.0
  1

  7
ROMANS8
100
AcDbText
  0
TEXT
  5
12AAA
100
AcDbEntity
  8
BEMASS
100
AcDbText
 10
29462.178428
 20
3646.813428
 30
0.0
 40
15.0
  1

  7
ROMANS8
100
AcDbText
  0
TEXT
  5
12AAB
100
AcDbEntity
  8
STP
100
AcDbText
 10
21750.174972
 20
4803.58476
 30
0.0
 40
3.0
  1

  7
ROMANS8
100
AcDbText
  0
TEXT
  5
15DB8
100
AcDbEntity
  8
STP
100
AcDbText
 10
11967.137099
 20
1001.499272
 30
0.0
 40
15.0
  1

  7
ROMANS8
100
AcDbText
  0
TEXT
  5
15DB9
100
AcDbEntity
  8
STP
100
AcDbText
 10
11962.137099
 20
977.213558
 30
0.0
 40
15.0
  1

  7
ROMANS8
100
AcDbText
  0
TEXT
  5
15DBA
100
AcDbEntity
  8
STP
100
AcDbText
 10
16210.250769
 20
-612.746341
 30
0.0
 40
15.0
  1

  7
ROMANS8
100
AcDbText
  0
TEXT
  5
15DBB
100
AcDbEntity
  8
STP
100
AcDbText
 10
11933.680772
 20
-1901.29672
 30
0.0
 40
15.0
  1

  7
ROMANS8
100
AcDbText
  0
TEXT
  5
15DBC
100
AcDbEntity
  8
STP
100
AcDbText
 10
11938.680772
 20
-1877.011006
 30
0.0
 40
15.0
  1

  7
ROMANS8
100
AcDbText
  0
TEXT
  5
15DBD
100
AcDbEntity
  8
STP
100
AcDbText
 10
13978.750769
 20
44.610802
 30
0.0
 40
3.0
  1

  7
ROMANS8
100
AcDbText
  0
TEXT
  5
15DBE
100
AcDbEntity
  8
STP
100
AcDbText
 10
16025.137099
 20
1468.999272
 30
0.0
 40
15.0
  1

  7
ROMANS8
100
AcDbText
  0
TEXT
  5
15DBF
100
AcDbEntity
  8
STP
100
AcDbText
 10
16020.137099
 20
1444.713558
 30
0.0
 40
15.0
  1

  7
ROMANS8
100
AcDbText
  0
TEXT
  5
15DC0
100
AcDbEntity
  8
STP
100
AcDbText
 10
20268.250769
 20
-145.246341
 30
0.0
 40
15.0
  1

  7
ROMANS8
100
AcDbText
  0
TEXT
  5
15DC1
100
AcDbEntity
  8
STP
100
AcDbText
 10
15991.680772
 20
-1433.79672
 30
0.0
 40
15.0
  1

  7
ROMANS8
100
AcDbText
  0
TEXT
  5
15DC2
100
AcDbEntity
  8
STP
100
AcDbText
 10
15996.680772
 20
-1409.511006
 30
0.0
 40
15.0
  1

  7
ROMANS8
100
AcDbText
  0
TEXT
  5
15DC3
100
AcDbEntity
  8
STP
100
AcDbText
 10
18036.750769
 20
512.110802
 30
0.0
 40
3.0
  1

  7
ROMANS8
100
AcDbText
  0
TEXT
  5
15DC4
100
AcDbEntity
  8
BEMASS
100
AcDbText
 10
14220.250769
 20
-462.174913
 30
0.0
 40
50.0
  1

  7
ROMANS8
100
AcDbText
  0
TEXT
  5
15DC5
100
AcDbEntity
  8
BEMASS
100
AcDbText
 10
17756.750769
 20
-1580.032056
 30
0.0
 40
3.0
  1

  7
ROMANS8
100
AcDbText
  0
TEXT
  5
15DC6
100
AcDbEntity
  8
BEMASS
100
AcDbText
 10
20710.250769
 20
47.039373
 30
0.0
 40
15.0
  1

  7
ROMANS8
100
AcDbText
  0
TEXT
  5
15DC7
100
AcDbEntity
  8
STP
100
AcDbText
 10
16375.637099
 20
2376.999272
 30
0.0
 40
15.0
  1

  7
ROMANS8
100
AcDbText
  0
TEXT
  5
15DC8
100
AcDbEntity
  8
STP
100
AcDbText
 10
16370.637099
 20
2352.713558
 30
0.0
 40
15.0
  1

  7
ROMANS8
100
AcDbText
  0
TEXT
  5
15DC9
100
AcDbEntity
  8
STP
100
AcDbText
 10
20618.750769
 20
762.753659
 30
0.0
 40
15.0
  1

  7
ROMANS8
100
AcDbText
  0
TEXT
  5
15DCA
100
AcDbEntity
  8
STP
100
AcDbText
 10
16342.180772
 20
-525.79672
 30
0.0
 40
15.0
  1

  7
ROMANS8
100
AcDbText
  0
TEXT
  5
15DCB
100
AcDbEntity
  8
STP
100
AcDbText
 10
16347.180772
 20
-501.511006
 30
0.0
 40
15.0
  1

  7
ROMANS8
100
AcDbText
  0
TEXT
  5
15DCC
100
AcDbEntity
  8
STP
100
AcDbText
 10
18387.250769
 20
1420.110802
 30
0.0
 40
3.0
  1

  7
ROMANS8
100
AcDbText
  0
TEXT
  5
15DCD
100
AcDbEntity
  8
BEMASS
100
AcDbText
 10
14570.750769
 20
445.825087
 30
0.0
 40
50.0
  1

  7
ROMANS8
100
AcDbText
  0
TEXT
  5
15DCE
100
AcDbEntity
  8
BEMASS
100
AcDbText
 10
18107.250769
 20
-672.032056
 30
0.0
 40
3.0
  1

  7
ROMANS8
100
AcDbText
  0
TEXT
  5
15DCF
100
AcDbEntity
  8
BEMASS
100
AcDbText
 10
21060.750769
 20
955.039373
 30
0.0
 40
15.0
  1

  7
ROMANS8
100
AcDbText
  0
TEXT
  5
15DD0
100
AcDbEntity
  8
STP
100
AcDbText
 10
13348.747312
 20
2111.810704
 30
0.0
 40
3.0
  1

  7
ROMANS8
100
AcDbText
  0
TEXT
  5
15DD1
100
AcDbEntity
  8
STP
100
AcDbText
 10
11963.680772
 20
-1898.79672
 30
0.0
 40
15.0
  1

  7
ROMANS8
100
AcDbText
  0
MTEXT
  5
15DD2
100
AcDbEntity
  8
TT
100
AcDbMText
 10
13925.511075
 20
-1600.700242
 30
0.0
 40
25.0
 41
0.0
 71
     7
 72
     5
  1

  7
ROMANS
  0
MTEXT
  5
15DD3
100
AcDbEntity
  8
BEMASS
100
AcDbMText
 10
10478.866738
 20
-1472.276166
 30
0.0
 40
25.0
 41
0.0
 71
     9
 72
     5
  1
 
  7
ROMANS
  0
MTEXT
  5
15DD4
100
AcDbEntity
  8
BEMASS
100
AcDbMText
 10
10306.492088
 20
-1517.101463
 30
0.0
 40
25.0
 41
0.0
 71
     9
 72
     5
  1

  7
ROMANS
  0
MTEXT
  5
15DD5
100
AcDbEntity
  8
BEMASS
100
AcDbMText
 10
10881.536621
 20
-1151.602146
 30
0.0
 40
25.0
 41
0.0
 71
     7
 72
     5
  1

  7
ROMANS
  0
MTEXT
  5
15DD6
100
AcDbEntity
  8
BEMASS
100
AcDbMText
 10
8936.190849
 20
-1148.874542
 30
0.0
 40
25.0
 41
0.0
 71
     9
 72
     5
  1

  7
ROMANS
  0
MTEXT
  5
15DD7
100
AcDbEntity
  8
BEMASS
100
AcDbMText
 10
13503.743988
 20
-1589.236577
 30
0.0
 40
6.0
 41
0.435431
 71
     1
 72
     5
  1

  7
ILKA2
  0
MTEXT
  5
15DD8
100
AcDbEntity
  8
BEMASS
100
AcDbMText
 10
13447.65669
 20
-1666.38732
 30
0.0
 40
5.0
 41
0.0
 71
     7
 72
     5
  1

  7
ILKA2
  0
INSERT
  5
15DD9
100
AcDbEntity
  8
ASHADE
 62
     1
100
AcDbBlockReference
  2
AVE_RENDER
 10
13086.214485
 20
-2071.237413
 30
0.0
1001
AVE_RENDER
1002
{
1070
     6
1000
Pref
1070
    30
1070
    20
1070
     1
1070
     0
1000

1070
    10
1070
     1
1070
    30
1040
1.0
1070
     1
1040
0.3
1040
0.7
1040
0.0
1040
10.0
1010
-1.0
1020
-1.0
1030
-1.0
1040
0.3
1070
    49
1070
     0
1070
     0
1010
1.0
1020
1.0
1030
1.0
1040
45.0
1070
     1
1070
     0
1000
WCS
1040
0.0
1002
}
  0
INSERT
  5
15DDA
100
AcDbEntity
  8
ASHADE
 62
     3
100
AcDbBlockReference
  2
AVE_RENDER
 10
13086.214485
 20
-2071.237413
 30
0.0
1001
AVE_RENDER
1002
{
1070
     0
1000
Full Opt
1070
     0
1070
     1
1070
     1
1070
     1
1070
     0
1070
     0
1070
     0
1070
     1
1070
     1
1040
0.0001
1040
0.0001
1002
}
  0
INSERT
  5
15DDB
100
AcDbEntity
  8
ASHADE
 62
     4
100
AcDbBlockReference
  2
AVE_RENDER
 10
13086.214485
 20
-2071.237413
 30
0.0
1001
AVE_RENDER
1002
{
1070
     0
1000
Quick Opt
1070
     0
1070
     1
1070
     1
1070
     1
1070
     0
1070
     0
1070
     1
1002
}
  0
INSERT
  5
15DDC
100
AcDbEntity
  8
ASHADE
 62
     5
100
AcDbBlockReference
  2
AVE_RENDER
 10
13086.214485
 20
-2071.237413
 30
0.0
1001
AVE_RENDER
1002
{
1070
     1
1000
Scanl Opt
1070
     2
1070
     0
1070
     2
1040
2.0
1040
4.0
1070
     0
1070
     1
1070
     0
1040
0.03
1002
}
  0
INSERT
  5
15DDD
100
AcDbEntity
  8
ASHADE
 62
     6
100
AcDbBlockReference
  2
AVE_RENDER
 10
13086.214485
 20
-2071.237413
 30
0.0
1001
AVE_RENDER
1002
{
1070
     2
1000
Raytr Opt
1070
     2
1070
     0
1070
     2
1040
2.0
1040
4.0
1070
     0
1070
     1
1070
     1
1040
0.03
1070
     3
1040
0.03
1002
}
  0
INSERT
  5
15DDE
100
AcDbEntity
  8
ASHADE
 62
     7
100
AcDbBlockReference
  2
AVE_RENDER
 10
13086.214485
 20
-2071.237413
 30
0.0
1001
AVE_RENDER
1002
{
1070
     0
1000
RFile Opt
1070
     5
1070
   640
1070
   480
1070
 10000
1070
     3
1070
    32
1070
    24
1070
     0
1070
     0
1070
     0
1070
     1
1070
     0
1070
     0
1070
     0
1002
}
  0
INSERT
  5
15DDF
100
AcDbEntity
  8
ASHADE
 62
     8
100
AcDbBlockReference
  2
AVE_RENDER
 10
13086.214485
 20
-2071.237413
 30
0.0
1001
AVE_RENDER
1002
{
1070
     0
1000
Fog Opt
1070
     0
1070
     0
1040
0.0
1040
1.0
1040
0.0
1040
1.0
1010
0.5
1020
0.5
1030
0.5
1002
}
  0
INSERT
  5
15DE0
100
AcDbEntity
  8
ASHADE
 62
     9
100
AcDbBlockReference
  2
AVE_RENDER
 10
13086.214485
 20
-2071.237413
 30
0.0
1001
AVE_RENDER
1002
{
1070
     0
1000
BG Opt
1070
     0
1070
     1
1010
0.0
1020
0.0
1030
0.0
1010
1.0
1020
0.0
1030
0.0
1010
0.0
1020
1.0
1030
0.0
1010
0.0
1020
0.0
1030
1.0
1040
0.5
1040
0.33
1040
0.0
1000

1070
     1
1000

1070
     1
1070
     1
1040
1.0
1040
1.0
1040
0.0
1040
0.0
1070
     0
1002
}
  0
INSERT
  5
15DE1
100
AcDbEntity
  8
ASHADE
 62
     1
100
AcDbBlockReference
  2
AVE_GLOBAL
 10
13086.214485
 20
-2071.237413
 30
0.0
1001
AVE_MATERIAL
1002
{
1000
*GLOBAL*
1000
1
1000
Globales Material.
1002
{
1002
}
1002
{
1070
    63
1002
{
1002
{
1010
-1.0
1020
-1.0
1030
-1.0
1002
}
1040
0.1
1000

1040
0.0
1002
{
1002
}
1040
0.0
1002
{
1002
}
1040
0.0
1002
}
1002
{
1002
{
1010
-1.0
1020
-1.0
1030
-1.0
1002
}
1040
0.7
1000

1040
0.0
1002
{
1002
}
1040
0.0
1002
{
1002
}
1040
0.0
1002
}
1002
{
1002
{
1010
-1.0
1020
-1.0
1030
-1.0
1002
}
1040
0.2
1000

1040
0.0
1002
{
1002
}
1040
0.0
1002
{
1002
}
1040
0.0
1002
}
1002
{
1070
     0
1002
{
1070
     1
1002
{
1040
1.0
1040
1.0
1000

1040
0.0
1002
{
1002
}
1040
0.0
1002
{
1002
}
1040
0.0
1002
}
1002
}
1040
1.0
1040
0.0
1040
0.0
1002
}
1002
{
1040
1.0
1040
1.0
1000

1040
0.0
1002
{
1002
}
1040
0.0
1002
{
1002
}
1040
0.0
1002
}
1002
{
1040
0.5
1040
1.0
1000

1040
0.0
1002
{
1002
}
1040
0.0
1002
{
1002
}
1040
0.0
1002
}
1002
{
1070
     0
1040
0.0
1002
{
1002
}
1040
1.0
1002
{
1002
}
1040
0.0
1002
}
1002
{
1040
0.0
1002
{
1002
{
1010
0.0
1020
0.0
1030
0.0
1002
}
1040
1.0
1000

1040
0.0
1002
{
1002
}
1040
0.0
1002
{
1002
}
1040
0.0
1002
}
1002
}
1002
{
1002
{
1070
     1
1002
{
1040
0.0
1040
1.0
1000

1040
0.0
1002
{
1002
}
1040
0.0
1002
{
1002
}
1040
0.0
1002
}
1002
}
1040
0.0
1002
{
1002
}
1010
1.0
1020
0.0
1030
0.0
1010
0.0
1020
1.0
1030
0.0
1010
0.0
1020
0.0
1030
1.0
1070
     0
1002
}
1002
{
1002
{
1040
1.0
1040
1.0
1002
{
1070
     1
1002
{
1040
1.0
1040
1.0
1000

1040
0.0
1002
{
1002
}
1040
0.0
1002
{
1002
}
1040
0.0
1002
}
1002
}
1002
}
1070
     0
1040
0.0
1002
{
1002
}
1002
}
1002
{
1002
}
1002
}
1002
{
1071
        3
1070
     3
1070
     0
1002
{
1070
     2
1070
     0
1070
     0
1040
0.0
1002
}
1070
     0
1070
     2
1002
{
1002
}
1002
}
1002
{
1040
8030.0
1040
190.300003
1040
0.305
1040
228.0
1040
545.0
1040
14.0
1040
17.4
1040
0.456
1002
}
1002
}
  0
MTEXT
  5
15DE2
100
AcDbEntity
  8
BEMASS
100
AcDbMText
 10
16582.214485
 20
1461.762587
 30
0.0
 40
20.0
 41
0.0
 71
     7
 72
     5
  1
\P
  7
ROMANS
  0
MTEXT
  5
15DE3
100
AcDbEntity
  8
BEMASS
100
AcDbMText
 10
15925.714485
 20
875.762587
 30
0.0
 40
20.0
 41
0.0
 71
     9
 72
     5
  1
\P
  7
ROMANS
  0
TEXT
  5
15DE4
100
AcDbEntity
  8
STP
100
AcDbText
 10
23626.100816
 20
2142.936772
 30
0.0
 40
15.0
  1

  7
ROMANS8
100
AcDbText
  0
TEXT
  5
15DE5
100
AcDbEntity
  8
STP
100
AcDbText
 10
23621.100816
 20
2118.651058
 30
0.0
 40
15.0
  1

  7
ROMANS8
100
AcDbText
  0
TEXT
  5
15DE6
100
AcDbEntity
  8
STP
100
AcDbText
 10
27869.214485
 20
528.691159
 30
0.0
 40
15.0
  1

  7
ROMANS8
100
AcDbText
  0
TEXT
  5
15DE7
100
AcDbEntity
  8
STP
100
AcDbText
 10
23592.644489
 20
-759.85922
 30
0.0
 40
15.0
  1

  7
ROMANS8
100
AcDbText
  0
TEXT
  5
15DE8
100
AcDbEntity
  8
STP
100
AcDbText
 10
23597.644489
 20
-735.573506
 30
0.0
 40
15.0
  1

  7
ROMANS8
100
AcDbText
  0
TEXT
  5
15DE9
100
AcDbEntity
  8
STP
100
AcDbText
 10
25637.714485
 20
1186.048302
 30
0.0
 40
3.0
  1

  7
ROMANS8
100
AcDbText
  0
TEXT
  5
15DEA
100
AcDbEntity
  8
STP
100
AcDbText
 10
34335.214485
 20
-809.737413
 30
0.0
 40
15.0
  1

  7
ROMANS8
100
AcDbText
  0
TEXT
  5
15DEB
100
AcDbEntity
  8
STP
100
AcDbText
 10
34335.214485
 20
2040.262587
 30
0.0
 40
15.0
  1

  7
ROMANS8
100
AcDbText
  0
TEXT
  5
15DEC
100
AcDbEntity
  8
STP
100
AcDbText
 10
39355.214485
 20
5712.762587
 30
0.0
 40
15.0
  1

  7
ROMANS8
100
AcDbText
  0
TEXT
  5
15DED
100
AcDbEntity
  8
STP
100
AcDbText
 10
39080.714485
 20
5712.762587
 30
0.0
 40
15.0
  1

  7
ROMANS8
100
AcDbText
  0
TEXT
  5
15DEE
100
AcDbEntity
  8
STP
100
AcDbText
 10
25773.026985
 20
-718.362413
 30
0.0
 40
15.375
  1

  7
ROMANS8
100
AcDbText
  0
TEXT
  5
15DEF
100
AcDbEntity
  8
STP
100
AcDbText
 10
25773.026985
 20
-738.31777
 30
0.0
 40
15.375
  1

  7
ROMANS8
100
AcDbText
  0
TEXT
  5
15DF0
100
AcDbEntity
  8
STP
100
AcDbText
 10
25773.026985
 20
-758.460627
 30
0.0
 40
15.375
  1

  7
ROMANS8
100
AcDbText
  0
TEXT
  5
15DF1
100
AcDbEntity
  8
STP
100
AcDbText
 10
25773.026985
 20
-778.478484
 30
0.0
 40
15.375
  1

  7
ROMANS8
100
AcDbText
  0
TEXT
  5
15DF2
100
AcDbEntity
  8
STP
100
AcDbText
 10
25773.026985
 20
-798.433841
 30
0.0
 40
15.375
  1

  7
ROMANS8
100
AcDbText
  0
TEXT
  5
15DF3
100
AcDbEntity
  8
STP
100
AcDbText
 10
30048.100816
 20
2127.436772
 30
0.0
 40
15.0
  1

  7
ROMANS8
100
AcDbText
  0
TEXT
  5
15DF4
100
AcDbEntity
  8
STP
100
AcDbText
 10
30043.100816
 20
2103.151058
 30
0.0
 40
15.0
  1

  7
ROMANS8
100
AcDbText
  0
TEXT
  5
15DF5
100
AcDbEntity
  8
STP
100
AcDbText
 10
34291.214485
 20
513.191159
 30
0.0
 40
15.0
  1

  7
ROMANS8
100
AcDbText
  0
TEXT
  5
15DF6
100
AcDbEntity
  8
STP
100
AcDbText
 10
30014.644489
 20
-775.35922
 30
0.0
 40
15.0
  1

  7
ROMANS8
100
AcDbText
  0
TEXT
  5
15DF7
100
AcDbEntity
  8
STP
100
AcDbText
 10
30019.644489
 20
-751.073506
 30
0.0
 40
15.0
  1

  7
ROMANS8
100
AcDbText
  0
TEXT
  5
15DF8
100
AcDbEntity
  8
STP
100
AcDbText
 10
32059.714485
 20
1170.548302
 30
0.0
 40
3.0
  1

  7
ROMANS8
100
AcDbText
  0
TEXT
  5
15DF9
100
AcDbEntity
  8
BEMASS
100
AcDbText
 10
28243.214485
 20
196.262587
 30
0.0
 40
50.0
  1

  7
ROMANS8
100
AcDbText
  0
TEXT
  5
15DFA
100
AcDbEntity
  8
BEMASS
100
AcDbText
 10
31779.714485
 20
-921.594556
 30
0.0
 40
3.0
  1

  7
ROMANS8
100
AcDbText
  0
TEXT
  5
15DFB
100
AcDbEntity
  8
BEMASS
100
AcDbText
 10
34733.214485
 20
705.476873
 30
0.0
 40
15.0
  1

  7
ROMANS8
100
AcDbText
  0
TEXT
  5
15DFC
100
AcDbEntity
  8
STP
100
AcDbText
 10
27021.211029
 20
1862.248204
 30
0.0
 40
3.0
  1

  7
ROMANS8
100
AcDbText
  0
TEXT
  5
15DFD
100
AcDbEntity
  8
STP
100
AcDbText
 10
26453.089485
 20
-800.612413
 30
0.0
 40
15.375
  1

  7
ROMANS8
100
AcDbText
  0
TEXT
  5
15DFE
100
AcDbEntity
  8
STP
100
AcDbText
 10
30255.600816
 20
4621.436772
 30
0.0
 40
15.0
  1

  7
ROMANS8
100
AcDbText
  0
TEXT
  5
15DFF
100
AcDbEntity
  8
STP
100
AcDbText
 10
30250.600816
 20
4597.151058
 30
0.0
 40
15.0
  1

  7
ROMANS8
100
AcDbText
  0
TEXT
  5
15E00
100
AcDbEntity
  8
STP
100
AcDbText
 10
34498.714485
 20
3007.191159
 30
0.0
 40
15.0
  1

  7
ROMANS8
100
AcDbText
  0
TEXT
  5
15E01
100
AcDbEntity
  8
STP
100
AcDbText
 10
30222.144489
 20
1718.64078
 30
0.0
 40
15.0
  1

  7
ROMANS8
100
AcDbText
  0
TEXT
  5
15E02
100
AcDbEntity
  8
STP
100
AcDbText
 10
30227.144489
 20
1742.926494
 30
0.0
 40
15.0
  1

  7
ROMANS8
100
AcDbText
  0
TEXT
  5
15E03
100
AcDbEntity
  8
STP
100
AcDbText
 10
32267.214485
 20
3664.548302
 30
0.0
 40
3.0
  1

  7
ROMANS8
100
AcDbText
  0
TEXT
  5
15E04
100
AcDbEntity
  8
BEMASS
100
AcDbText
 10
28450.714485
 20
2690.262587
 30
0.0
 40
50.0
  1

  7
ROMANS8
100
AcDbText
  0
TEXT
  5
15E05
100
AcDbEntity
  8
BEMASS
100
AcDbText
 10
31987.214485
 20
1572.405444
 30
0.0
 40
3.0
  1

  7
ROMANS8
100
AcDbText
  0
TEXT
  5
15E06
100
AcDbEntity
  8
BEMASS
100
AcDbText
 10
34940.714485
 20
3199.476873
 30
0.0
 40
15.0
  1

  7
ROMANS8
100
AcDbText
  0
TEXT
  5
15E07
100
AcDbEntity
  8
STP
100
AcDbText
 10
27228.711029
 20
4356.248204
 30
0.0
 40
3.0
  1

  7
ROMANS8
100
AcDbText
  0
TEXT
  5
15E08
100
AcDbEntity
  8
STP
100
AcDbText
 10
37222.600816
 20
7383.436772
 30
0.0
 40
15.0
  1

  7
ROMANS8
100
AcDbText
  0
TEXT
  5
15E09
100
AcDbEntity
  8
STP
100
AcDbText
 10
37217.600816
 20
7359.151058
 30
0.0
 40
15.0
  1

  7
ROMANS8
100
AcDbText
  0
TEXT
  5
15E0A
100
AcDbEntity
  8
STP
100
AcDbText
 10
41465.714485
 20
5769.191159
 30
0.0
 40
15.0
  1

  7
ROMANS8
100
AcDbText
  0
TEXT
  5
15E0B
100
AcDbEntity
  8
STP
100
AcDbText
 10
37189.144489
 20
4480.64078
 30
0.0
 40
15.0
  1

  7
ROMANS8
100
AcDbText
  0
TEXT
  5
15E0C
100
AcDbEntity
  8
STP
100
AcDbText
 10
37194.144489
 20
4504.926494
 30
0.0
 40
15.0
  1

  7
ROMANS8
100
AcDbText
  0
TEXT
  5
15E0D
100
AcDbEntity
  8
STP
100
AcDbText
 10
39234.214485
 20
6426.548302
 30
0.0
 40
3.0
  1

  7
ROMANS8
100
AcDbText
  0
TEXT
  5
15E0E
100
AcDbEntity
  8
STP
100
AcDbText
 10
47931.714485
 20
4430.762587
 30
0.0
 40
15.0
  1

  7
ROMANS8
100
AcDbText
  0
TEXT
  5
15E0F
100
AcDbEntity
  8
STP
100
AcDbText
 10
47931.714485
 20
7280.762587
 30
0.0
 40
15.0
  1

  7
ROMANS8
100
AcDbText
  0
TEXT
  5
15E10
100
AcDbEntity
  8
STP
100
AcDbText
 10
52951.714485
 20
10953.262587
 30
0.0
 40
15.0
  1

  7
ROMANS8
100
AcDbText
  0
TEXT
  5
15E11
100
AcDbEntity
  8
STP
100
AcDbText
 10
52677.214485
 20
10953.262587
 30
0.0
 40
15.0
  1

  7
ROMANS8
100
AcDbText
  0
TEXT
  5
15E12
100
AcDbEntity
  8
STP
100
AcDbText
 10
43644.600816
 20
7367.936772
 30
0.0
 40
15.0
  1

  7
ROMANS8
100
AcDbText
  0
TEXT
  5
15E13
100
AcDbEntity
  8
STP
100
AcDbText
 10
43639.600816
 20
7343.651058
 30
0.0
 40
15.0
  1

  7
ROMANS8
100
AcDbText
  0
TEXT
  5
15E14
100
AcDbEntity
  8
STP
100
AcDbText
 10
47887.714485
 20
5753.691159
 30
0.0
 40
15.0
  1

  7
ROMANS8
100
AcDbText
  0
TEXT
  5
15E15
100
AcDbEntity
  8
STP
100
AcDbText
 10
43611.144489
 20
4465.14078
 30
0.0
 40
15.0
  1

  7
ROMANS8
100
AcDbText
  0
TEXT
  5
15E16
100
AcDbEntity
  8
STP
100
AcDbText
 10
43616.144489
 20
4489.426494
 30
0.0
 40
15.0
  1

  7
ROMANS8
100
AcDbText
  0
TEXT
  5
15E17
100
AcDbEntity
  8
STP
100
AcDbText
 10
45656.214485
 20
6411.048302
 30
0.0
 40
3.0
  1

  7
ROMANS8
100
AcDbText
  0
TEXT
  5
15E18
100
AcDbEntity
  8
BEMASS
100
AcDbText
 10
41839.714485
 20
5436.762587
 30
0.0
 40
50.0
  1

  7
ROMANS8
100
AcDbText
  0
TEXT
  5
15E19
100
AcDbEntity
  8
BEMASS
100
AcDbText
 10
45376.214485
 20
4318.905444
 30
0.0
 40
3.0
  1

  7
ROMANS8
100
AcDbText
  0
TEXT
  5
15E1A
100
AcDbEntity
  8
BEMASS
100
AcDbText
 10
48329.714485
 20
5945.976873
 30
0.0
 40
15.0
  1

  7
ROMANS8
100
AcDbText
  0
TEXT
  5
15E1B
100
AcDbEntity
  8
STP
100
AcDbText
 10
40617.711029
 20
7102.748204
 30
0.0
 40
3.0
  1

  7
ROMANS8
100
AcDbText
  0
TEXT
  5
15E1C
100
AcDbEntity
  8
STP
100
AcDbText
 10
37430.100816
 20
6273.936772
 30
0.0
 40
15.0
  1

  7
ROMANS8
100
AcDbText
  0
TEXT
  5
15E1D
100
AcDbEntity
  8
STP
100
AcDbText
 10
37425.100816
 20
6249.651058
 30
0.0
 40
15.0
  1

  7
ROMANS8
100
AcDbText
  0
TEXT
  5
15E1E
100
AcDbEntity
  8
STP
100
AcDbText
 10
41673.214485
 20
4659.691159
 30
0.0
 40
15.0
  1

  7
ROMANS8
100
AcDbText
  0
TEXT
  5
15E1F
100
AcDbEntity
  8
STP
100
AcDbText
 10
37396.644489
 20
3371.14078
 30
0.0
 40
15.0
  1

  7
ROMANS8
100
AcDbText
  0
TEXT
  5
15E20
100
AcDbEntity
  8
STP
100
AcDbText
 10
37401.644489
 20
3395.426494
 30
0.0
 40
15.0
  1

  7
ROMANS8
100
AcDbText
  0
TEXT
  5
15E21
100
AcDbEntity
  8
BEMASS
100
AcDbText
 10
33805.826219
 20
11339.275319
 30
0.0
 40
20.0
  1

  7
ROMANS8
100
AcDbText
  0
TEXT
  5
15E22
100
AcDbEntity
  8
STP
100
AcDbText
 10
37595.600816
 20
10813.936772
 30
0.0
 40
15.0
  1

  7
ROMANS8
100
AcDbText
  0
TEXT
  5
15E23
100
AcDbEntity
  8
STP
100
AcDbText
 10
37590.600816
 20
10789.651058
 30
0.0
 40
15.0
  1

  7
ROMANS8
100
AcDbText
  0
TEXT
  5
15E24
100
AcDbEntity
  8
STP
100
AcDbText
 10
41838.714485
 20
9199.691159
 30
0.0
 40
15.0
  1

  7
ROMANS8
100
AcDbText
  0
TEXT
  5
15E25
100
AcDbEntity
  8
STP
100
AcDbText
 10
37562.144489
 20
7911.14078
 30
0.0
 40
15.0
  1

  7
ROMANS8
100
AcDbText
  0
TEXT
  5
15E26
100
AcDbEntity
  8
STP
100
AcDbText
 10
37567.144489
 20
7935.426494
 30
0.0
 40
15.0
  1

  7
ROMANS8
100
AcDbText
  0
TEXT
  5
15E27
100
AcDbEntity
  8
STP
100
AcDbText
 10
41673.600816
 20
10816.936772
 30
0.0
 40
15.0
  1

  7
ROMANS8
100
AcDbText
  0
TEXT
  5
15E28
100
AcDbEntity
  8
STP
100
AcDbText
 10
41668.600816
 20
10792.651058
 30
0.0
 40
15.0
  1

  7
ROMANS8
100
AcDbText
  0
TEXT
  5
15E29
100
AcDbEntity
  8
STP
100
AcDbText
 10
45916.714485
 20
9202.691159
 30
0.0
 40
15.0
  1

  7
ROMANS8
100
AcDbText
  0
TEXT
  5
15E2A
100
AcDbEntity
  8
STP
100
AcDbText
 10
41640.144489
 20
7914.14078
 30
0.0
 40
15.0
  1

  7
ROMANS8
100
AcDbText
  0
TEXT
  5
15E2B
100
AcDbEntity
  8
STP
100
AcDbText
 10
41645.144489
 20
7938.426494
 30
0.0
 40
15.0
  1

  7
ROMANS8
100
AcDbText
  0
TEXT
  5
15E2C
100
AcDbEntity
  8
STP
100
AcDbText
 10
43685.214485
 20
9860.048302
 30
0.0
 40
3.0
  1

  7
ROMANS8
100
AcDbText
  0
TEXT
  5
15E2D
100
AcDbEntity
  8
STP
100
AcDbText
 10
45731.600816
 20
11284.436772
 30
0.0
 40
15.0
  1

  7
ROMANS8
100
AcDbText
  0
TEXT
  5
15E2E
100
AcDbEntity
  8
STP
100
AcDbText
 10
45726.600816
 20
11260.151058
 30
0.0
 40
15.0
  1

  7
ROMANS8
100
AcDbText
  0
TEXT
  5
15E2F
100
AcDbEntity
  8
STP
100
AcDbText
 10
49974.714485
 20
9670.191159
 30
0.0
 40
15.0
  1

  7
ROMANS8
100
AcDbText
  0
TEXT
  5
15E30
100
AcDbEntity
  8
STP
100
AcDbText
 10
45698.144489
 20
8381.64078
 30
0.0
 40
15.0
  1

  7
ROMANS8
100
AcDbText
  0
TEXT
  5
15E31
100
AcDbEntity
  8
STP
100
AcDbText
 10
45703.144489
 20
8405.926494
 30
0.0
 40
15.0
  1

  7
ROMANS8
100
AcDbText
  0
TEXT
  5
15E32
100
AcDbEntity
  8
STP
100
AcDbText
 10
47743.214485
 20
10327.548302
 30
0.0
 40
3.0
  1

  7
ROMANS8
100
AcDbText
  0
TEXT
  5
15E33
100
AcDbEntity
  8
BEMASS
100
AcDbText
 10
43926.714485
 20
9353.262587
 30
0.0
 40
50.0
  1

  7
ROMANS8
100
AcDbText
  0
TEXT
  5
15E34
100
AcDbEntity
  8
BEMASS
100
AcDbText
 10
47463.214485
 20
8235.405444
 30
0.0
 40
3.0
  1

  7
ROMANS8
100
AcDbText
  0
TEXT
  5
15E35
100
AcDbEntity
  8
BEMASS
100
AcDbText
 10
50416.714485
 20
9862.476873
 30
0.0
 40
15.0
  1

  7
ROMANS8
100
AcDbText
  0
TEXT
  5
15E36
100
AcDbEntity
  8
BEMASS
100
AcDbText
 10
34178.826219
 20
10539.275319
 30
0.0
 40
20.0
  1

  7
ROMANS8
100
AcDbText
  0
INSERT
  5
15E37
100
AcDbEntity
  8
ASHADE
 62
     1
100
AcDbBlockReference
  2
AVE_RENDER
 10
38912.714485
 20
11278.762587
 30
0.0
1001
AVE_RENDER
1002
{
1070
     2
1000
Pref
1070
    30
1070
    20
1070
     0
1070
     0
1000

1070
    10
1070
     0
1070
    30
1040
1.0
1070
     1
1040
0.3
1040
0.7
1040
0.0
1040
10.0
1010
-1.0
1020
-1.0
1030
-1.0
1040
0.3
1070
    49
1002
}
  0
INSERT
  5
15E38
100
AcDbEntity
  8
ASHADE
 62
     3
100
AcDbBlockReference
  2
AVE_RENDER
 10
38912.714485
 20
11278.762587
 30
0.0
1001
AVE_RENDER
1002
{
1070
     0
1000
Full Opt
1070
     0
1070
     1
1070
     1
1070
     1
1070
     0
1070
     0
1070
     0
1070
     1
1070
     1
1040
0.0001
1040
0.0001
1002
}
  0
INSERT
  5
15E39
100
AcDbEntity
  8
ASHADE
 62
     4
100
AcDbBlockReference
  2
AVE_RENDER
 10
38912.714485
 20
11278.762587
 30
0.0
1001
AVE_RENDER
1002
{
1070
     0
1000
Quick Opt
1070
     0
1070
     1
1070
     1
1070
     1
1070
     0
1070
     0
1070
     1
1002
}
  0
TEXT
  5
15E3A
100
AcDbEntity
  8
STP
100
AcDbText
 10
15854.758855
 20
2596.780502
 30
0.0
 40
30.0
  1
 
  7
ROMANS8
100
AcDbText
  0
TEXT
  5
15E3B
100
AcDbEntity
  8
STP
100
AcDbText
 10
15854.758855
 20
2548.209074
 30
0.0
 40
30.0
  1
 
  7
ROMANS8
100
AcDbText
  0
TEXT
  5
15E3C
100
AcDbEntity
  8
STP
100
AcDbText
 10
15854.758855
 20
2499.637645
 30
0.0
 40
30.0
  1
 
  7
ROMANS8
100
AcDbText
  0
TEXT
  5
15E3D
100
AcDbEntity
  8
STP
100
AcDbText
 10
19164.758855
 20
4556.780502
 30
0.0
 40
30.0
  1
 
  7
ROMANS8
100
AcDbText
  0
TEXT
  5
15E3E
100
AcDbEntity
  8
STP
100
AcDbText
 10
19164.758855
 20
4508.209074
 30
0.0
 40
30.0
  1
 
  7
ROMANS8
100
AcDbText
  0
TEXT
  5
15E3F
100
AcDbEntity
  8
STP
100
AcDbText
 10
19164.758855
 20
4459.637645
 30
0.0
 40
30.0
  1
 
  7
ROMANS8
100
AcDbText
  0
TEXT
  5
15E40
100
AcDbEntity
  8
STP
100
AcDbText
 10
15863.869976
 20
7681.325122
 30
0.0
 40
30.0
  1
 
  7
ROMANS8
100
AcDbText
  0
TEXT
  5
15E41
100
AcDbEntity
  8
STP
100
AcDbText
 10
15863.869976
 20
7632.753694
 30
0.0
 40
30.0
  1
 
  7
ROMANS8
100
AcDbText
  0
TEXT
  5
15E42
100
AcDbEntity
  8
STP
100
AcDbText
 10
15863.869976
 20
7584.182265
 30
0.0
 40
30.0
  1
 
  7
ROMANS8
100
AcDbText
  0
TEXT
  5
15E43
100
AcDbEntity
  8
STP
100
AcDbText
 10
16608.758855
 20
2858.351931
 30
0.0
 40
15.0
  1

  7
ROMANS8
100
AcDbText
  0
TEXT
  5
15E44
100
AcDbEntity
  8
BEMASS
100
AcDbText
 10
8948.475914
 20
819.901765
 30
0.0
 40
30.0
  1

  7
ROMANS8
100
AcDbText
  0
TEXT
  5
15E45
100
AcDbEntity
  8
BEMASS
100
AcDbText
 10
28852.214485
 20
6055.762587
 30
0.0
 40
30.0
  1

  7
ROMANS8
100
AcDbText
  0
TEXT
  5
15E46
100
AcDbEntity
  8
BEMASS
100
AcDbText
 10
9288.475914
 20
819.901765
 30
0.0
 40
30.0
  1

  7
ROMANS8
100
AcDbText
  0
TEXT
  5
15E47
100
AcDbEntity
  8
BEMASS
100
AcDbText
 10
9088.475914
 20
819.901765
 30
0.0
 40
30.0
  1

  7
ROMANS8
100
AcDbText
  0
TEXT
  5
15E48
100
AcDbEntity
  8
STP
100
AcDbText
 10
22786.939799
 20
8310.867524
 30
0.0
 40
3.075
  1

  7
ROMANS8
100
AcDbText
  0
TEXT
  5
15E49
100
AcDbEntity
  8
STP
100
AcDbText
 10
22786.939799
 20
8306.876453
 30
0.0
 40
3.075
  1

  7
ROMANS8
100
AcDbText
  0
TEXT
  5
15E4A
100
AcDbEntity
  8
STP
100
AcDbText
 10
22786.939799
 20
8302.847882
 30
0.0
 40
3.075
  1

  7
ROMANS8
100
AcDbText
  0
TEXT
  5
15E4B
100
AcDbEntity
  8
STP
100
AcDbText
 10
22786.939799
 20
8298.84431
 30
0.0
 40
3.075
  1

  7
ROMANS8
100
AcDbText
  0
TEXT
  5
15E4C
100
AcDbEntity
  8
STP
100
AcDbText
 10
22786.939799
 20
8294.853239
 30
0.0
 40
3.075
  1

  7
ROMANS8
100
AcDbText
  0
TEXT
  5
15E4D
100
AcDbEntity
  8
STP
100
AcDbText
 10
20974.772312
 20
5614.826128
 30
0.0
 40
3.0
  1

  7
ROMANS8
100
AcDbText
  0
TEXT
  5
15E4E
100
AcDbEntity
  8
STP
100
AcDbText
 10
20974.772312
 20
5608.968985
 30
0.0
 40
3.0
  1

  7
ROMANS8
100
AcDbText
  0
TEXT
  5
15E4F
100
AcDbEntity
  8
STP
100
AcDbText
 10
22914.939799
 20
11160.867524
 30
0.0
 40
3.075
  1

  7
ROMANS8
100
AcDbText
  0
TEXT
  5
15E50
100
AcDbEntity
  8
STP
100
AcDbText
 10
22914.939799
 20
11156.876453
 30
0.0
 40
3.075
  1

  7
ROMANS8
100
AcDbText
  0
TEXT
  5
15E51
100
AcDbEntity
  8
STP
100
AcDbText
 10
22914.939799
 20
11152.847882
 30
0.0
 40
3.075
  1

  7
ROMANS8
100
AcDbText
  0
TEXT
  5
15E52
100
AcDbEntity
  8
STP
100
AcDbText
 10
22914.939799
 20
11148.84431
 30
0.0
 40
3.075
  1

  7
ROMANS8
100
AcDbText
  0
TEXT
  5
15E53
100
AcDbEntity
  8
STP
100
AcDbText
 10
22914.939799
 20
11144.853239
 30
0.0
 40
3.075
  1

  7
ROMANS8
100
AcDbText
  0
TEXT
  5
15E54
100
AcDbEntity
  8
STP
100
AcDbText
 10
21102.772312
 20
8464.826128
 30
0.0
 40
3.0
  1

  7
ROMANS8
100
AcDbText
  0
TEXT
  5
15E55
100
AcDbEntity
  8
STP
100
AcDbText
 10
21102.772312
 20
8458.968985
 30
0.0
 40
3.0
  1

  7
ROMANS8
100
AcDbText
  0
TEXT
  5
15E56
100
AcDbEntity
  8
STP
100
AcDbText
 10
24109.224682
 20
7821.203026
 30
0.0
 40
15.0
  1

  7
ROMANS8
100
AcDbText
  0
TEXT
  5
15E57
100
AcDbEntity
  8
STP
100
AcDbText
 10
24209.224682
 20
7821.203026
 30
0.0
 40
15.0
  1

  7
ROMANS8
100
AcDbText
  0
TEXT
  5
15E58
100
AcDbEntity
  8
STP
100
AcDbText
 10
24009.224682
 20
7821.203026
 30
0.0
 40
15.0
  1

  7
ROMANS8
100
AcDbText
  0
TEXT
  5
15E59
100
AcDbEntity
  8
STP
100
AcDbText
 10
24009.224682
 20
7791.203026
 30
0.0
 40
15.0
  1

  7
ROMANS8
100
AcDbText
  0
TEXT
  5
15E5A
100
AcDbEntity
  8
STP
100
AcDbText
 10
24109.224682
 20
7791.203026
 30
0.0
 40
15.0
  1

  7
ROMANS8
100
AcDbText
  0
TEXT
  5
15E5B
100
AcDbEntity
  8
STP
100
AcDbText
 10
24209.224682
 20
7791.203026
 30
0.0
 40
15.0
  1

  7
ROMANS8
100
AcDbText
  0
TEXT
  5
15E5C
100
AcDbEntity
  8
STP
100
AcDbText
 10
22884.939799
 20
12305.867524
 30
0.0
 40
3.075
  1

  7
ROMANS8
100
AcDbText
  0
TEXT
  5
15E5D
100
AcDbEntity
  8
STP
100
AcDbText
 10
22884.939799
 20
12301.876453
 30
0.0
 40
3.075
  1

  7
ROMANS8
100
AcDbText
  0
TEXT
  5
15E5E
100
AcDbEntity
  8
STP
100
AcDbText
 10
22884.939799
 20
12297.847882
 30
0.0
 40
3.075
  1

  7
ROMANS8
100
AcDbText
  0
TEXT
  5
15E5F
100
AcDbEntity
  8
STP
100
AcDbText
 10
22884.939799
 20
12293.84431
 30
0.0
 40
3.075
  1

  7
ROMANS8
100
AcDbText
  0
TEXT
  5
15E60
100
AcDbEntity
  8
STP
100
AcDbText
 10
22884.939799
 20
12289.853239
 30
0.0
 40
3.075
  1

  7
ROMANS8
100
AcDbText
  0
TEXT
  5
15E61
100
AcDbEntity
  8
STP
100
AcDbText
 10
21072.772312
 20
9609.826128
 30
0.0
 40
3.0
  1

  7
ROMANS8
100
AcDbText
  0
TEXT
  5
15E62
100
AcDbEntity
  8
STP
100
AcDbText
 10
21072.772312
 20
9603.968985
 30
0.0
 40
3.0
  1

  7
ROMANS8
100
AcDbText
  0
MTEXT
  5
160A4
100
AcDbEntity
  8
BEMASS
100
AcDbMText
 10
12252.461513
 20
5126.086445
 30
0.0
 40
25.0
 41
0.0
 71
     7
 72
     5
  1

  7
ROMANS
  0
MTEXT
  5
160A5
100
AcDbEntity
  8
BEMASS
100
AcDbMText
 10
12479.637208
 20
5126.086445
 30
0.0
 40
25.0
 41
0.0
 71
     9
 72
     5
  1

  7
ROMANS
  0
TEXT
  5
160A6
100
AcDbEntity
  8
STP
100
AcDbText
 10
21052.967694
 20
9727.441903
 30
0.0
 40
15.0
  1

  7
ROMANS8
100
AcDbText
  0
TEXT
  5
160A7
100
AcDbEntity
  8
STP
100
AcDbText
 10
21047.967694
 20
9703.156188
 30
0.0
 40
15.0
  1

  7
ROMANS8
100
AcDbText
  0
TEXT
  5
160A8
100
AcDbEntity
  8
STP
100
AcDbText
 10
25296.081363
 20
8113.196289
 30
0.0
 40
15.0
  1

  7
ROMANS8
100
AcDbText
  0
TEXT
  5
160A9
100
AcDbEntity
  8
STP
100
AcDbText
 10
21019.511367
 20
6824.64591
 30
0.0
 40
15.0
  1

  7
ROMANS8
100
AcDbText
  0
TEXT
  5
160AA
100
AcDbEntity
  8
STP
100
AcDbText
 10
21024.511367
 20
6848.931625
 30
0.0
 40
15.0
  1

  7
ROMANS8
100
AcDbText
  0
TEXT
  5
160AB
100
AcDbEntity
  8
STP
100
AcDbText
 10
23064.581363
 20
8770.553432
 30
0.0
 40
3.0
  1

  7
ROMANS8
100
AcDbText
  0
TEXT
  5
160AC
100
AcDbEntity
  8
BEMASS
100
AcDbText
 10
19248.081363
 20
7796.267718
 30
0.0
 40
50.0
  1

  7
ROMANS8
100
AcDbText
  0
TEXT
  5
160AD
100
AcDbEntity
  8
BEMASS
100
AcDbText
 10
22784.581363
 20
6678.410575
 30
0.0
 40
3.0
  1

  7
ROMANS8
100
AcDbText
  0
TEXT
  5
160AE
100
AcDbEntity
  8
BEMASS
100
AcDbText
 10
25738.081363
 20
8305.482003
 30
0.0
 40
15.0
  1

  7
ROMANS8
100
AcDbText
  0
TEXT
  5
160AF
100
AcDbEntity
  8
STP
100
AcDbText
 10
18026.077907
 20
9462.253335
 30
0.0
 40
3.0
  1

  7
ROMANS8
100
AcDbText
  0
TEXT
  5
160B0
100
AcDbEntity
  8
STP
100
AcDbText
 10
28019.967694
 20
12489.441903
 30
0.0
 40
15.0
  1

  7
ROMANS8
100
AcDbText
  0
TEXT
  5
160B1
100
AcDbEntity
  8
STP
100
AcDbText
 10
28014.967694
 20
12465.156188
 30
0.0
 40
15.0
  1

  7
ROMANS8
100
AcDbText
  0
TEXT
  5
160B2
100
AcDbEntity
  8
STP
100
AcDbText
 10
32263.081363
 20
10875.196289
 30
0.0
 40
15.0
  1

  7
ROMANS8
100
AcDbText
  0
TEXT
  5
160B3
100
AcDbEntity
  8
STP
100
AcDbText
 10
27986.511367
 20
9586.64591
 30
0.0
 40
15.0
  1

  7
ROMANS8
100
AcDbText
  0
TEXT
  5
160B4
100
AcDbEntity
  8
STP
100
AcDbText
 10
27991.511367
 20
9610.931625
 30
0.0
 40
15.0
  1

  7
ROMANS8
100
AcDbText
  0
TEXT
  5
160B5
100
AcDbEntity
  8
STP
100
AcDbText
 10
30031.581363
 20
11532.553432
 30
0.0
 40
3.0
  1

  7
ROMANS8
100
AcDbText
  0
TEXT
  5
160B6
100
AcDbEntity
  8
STP
100
AcDbText
 10
38729.081363
 20
9536.767718
 30
0.0
 40
15.0
  1

  7
ROMANS8
100
AcDbText
  0
TEXT
  5
160B7
100
AcDbEntity
  8
STP
100
AcDbText
 10
38729.081363
 20
12386.767718
 30
0.0
 40
15.0
  1

  7
ROMANS8
100
AcDbText
  0
TEXT
  5
160B8
100
AcDbEntity
  8
STP
100
AcDbText
 10
43749.081363
 20
16059.267718
 30
0.0
 40
15.0
  1

  7
ROMANS8
100
AcDbText
  0
TEXT
  5
160B9
100
AcDbEntity
  8
STP
100
AcDbText
 10
43474.581363
 20
16059.267718
 30
0.0
 40
15.0
  1

  7
ROMANS8
100
AcDbText
  0
TEXT
  5
160BA
100
AcDbEntity
  8
STP
100
AcDbText
 10
34441.967694
 20
12473.941903
 30
0.0
 40
15.0
  1

  7
ROMANS8
100
AcDbText
  0
TEXT
  5
160BB
100
AcDbEntity
  8
STP
100
AcDbText
 10
34436.967694
 20
12449.656188
 30
0.0
 40
15.0
  1

  7
ROMANS8
100
AcDbText
  0
TEXT
  5
160BC
100
AcDbEntity
  8
STP
100
AcDbText
 10
38685.081363
 20
10859.696289
 30
0.0
 40
15.0
  1

  7
ROMANS8
100
AcDbText
  0
TEXT
  5
160BD
100
AcDbEntity
  8
STP
100
AcDbText
 10
34408.511367
 20
9571.14591
 30
0.0
 40
15.0
  1

  7
ROMANS8
100
AcDbText
  0
TEXT
  5
160BE
100
AcDbEntity
  8
STP
100
AcDbText
 10
34413.511367
 20
9595.431625
 30
0.0
 40
15.0
  1

  7
ROMANS8
100
AcDbText
  0
TEXT
  5
160BF
100
AcDbEntity
  8
STP
100
AcDbText
 10
36453.581363
 20
11517.053432
 30
0.0
 40
3.0
  1

  7
ROMANS8
100
AcDbText
  0
TEXT
  5
160C0
100
AcDbEntity
  8
BEMASS
100
AcDbText
 10
32637.081363
 20
10542.767718
 30
0.0
 40
50.0
  1

  7
ROMANS8
100
AcDbText
  0
TEXT
  5
160C1
100
AcDbEntity
  8
BEMASS
100
AcDbText
 10
36173.581363
 20
9424.910575
 30
0.0
 40
3.0
  1

  7
ROMANS8
100
AcDbText
  0
TEXT
  5
160C2
100
AcDbEntity
  8
BEMASS
100
AcDbText
 10
39127.081363
 20
11051.982003
 30
0.0
 40
15.0
  1

  7
ROMANS8
100
AcDbText
  0
TEXT
  5
160C3
100
AcDbEntity
  8
STP
100
AcDbText
 10
31415.077907
 20
12208.753335
 30
0.0
 40
3.0
  1

  7
ROMANS8
100
AcDbText
  0
TEXT
  5
160C4
100
AcDbEntity
  8
STP
100
AcDbText
 10
28227.467694
 20
11379.941903
 30
0.0
 40
15.0
  1

  7
ROMANS8
100
AcDbText
  0
TEXT
  5
160C5
100
AcDbEntity
  8
STP
100
AcDbText
 10
28222.467694
 20
11355.656188
 30
0.0
 40
15.0
  1

  7
ROMANS8
100
AcDbText
  0
TEXT
  5
160C6
100
AcDbEntity
  8
STP
100
AcDbText
 10
32470.581363
 20
9765.696289
 30
0.0
 40
15.0
  1

  7
ROMANS8
100
AcDbText
  0
TEXT
  5
160C7
100
AcDbEntity
  8
STP
100
AcDbText
 10
28194.011367
 20
8477.14591
 30
0.0
 40
15.0
  1

  7
ROMANS8
100
AcDbText
  0
TEXT
  5
160C8
100
AcDbEntity
  8
STP
100
AcDbText
 10
28199.011367
 20
8501.431625
 30
0.0
 40
15.0
  1

  7
ROMANS8
100
AcDbText
  0
TEXT
  5
160C9
100
AcDbEntity
  8
BEMASS
100
AcDbText
 10
24603.193097
 20
16445.280449
 30
0.0
 40
20.0
  1

  7
ROMANS8
100
AcDbText
  0
TEXT
  5
160CA
100
AcDbEntity
  8
STP
100
AcDbText
 10
28392.967694
 20
15919.941903
 30
0.0
 40
15.0
  1

  7
ROMANS8
100
AcDbText
  0
TEXT
  5
160CB
100
AcDbEntity
  8
STP
100
AcDbText
 10
28387.967694
 20
15895.656188
 30
0.0
 40
15.0
  1

  7
ROMANS8
100
AcDbText
  0
TEXT
  5
160CC
100
AcDbEntity
  8
STP
100
AcDbText
 10
32636.081363
 20
14305.696289
 30
0.0
 40
15.0
  1

  7
ROMANS8
100
AcDbText
  0
TEXT
  5
160CD
100
AcDbEntity
  8
STP
100
AcDbText
 10
28359.511367
 20
13017.14591
 30
0.0
 40
15.0
  1

  7
ROMANS8
100
AcDbText
  0
TEXT
  5
160CE
100
AcDbEntity
  8
STP
100
AcDbText
 10
28364.511367
 20
13041.431625
 30
0.0
 40
15.0
  1

  7
ROMANS8
100
AcDbText
  0
TEXT
  5
160CF
100
AcDbEntity
  8
STP
100
AcDbText
 10
32470.967694
 20
15922.941903
 30
0.0
 40
15.0
  1

  7
ROMANS8
100
AcDbText
  0
TEXT
  5
160D0
100
AcDbEntity
  8
STP
100
AcDbText
 10
32465.967694
 20
15898.656188
 30
0.0
 40
15.0
  1

  7
ROMANS8
100
AcDbText
  0
TEXT
  5
160D1
100
AcDbEntity
  8
STP
100
AcDbText
 10
36714.081363
 20
14308.696289
 30
0.0
 40
15.0
  1

  7
ROMANS8
100
AcDbText
  0
TEXT
  5
160D2
100
AcDbEntity
  8
STP
100
AcDbText
 10
32437.511367
 20
13020.14591
 30
0.0
 40
15.0
  1

  7
ROMANS8
100
AcDbText
  0
TEXT
  5
160D3
100
AcDbEntity
  8
STP
100
AcDbText
 10
32442.511367
 20
13044.431625
 30
0.0
 40
15.0
  1

  7
ROMANS8
100
AcDbText
  0
TEXT
  5
160D4
100
AcDbEntity
  8
STP
100
AcDbText
 10
34482.581363
 20
14966.053432
 30
0.0
 40
3.0
  1

  7
ROMANS8
100
AcDbText
  0
TEXT
  5
160D5
100
AcDbEntity
  8
STP
100
AcDbText
 10
36528.967694
 20
16390.441903
 30
0.0
 40
15.0
  1

  7
ROMANS8
100
AcDbText
  0
TEXT
  5
160D6
100
AcDbEntity
  8
STP
100
AcDbText
 10
36523.967694
 20
16366.156188
 30
0.0
 40
15.0
  1

  7
ROMANS8
100
AcDbText
  0
TEXT
  5
160D7
100
AcDbEntity
  8
STP
100
AcDbText
 10
40772.081363
 20
14776.196289
 30
0.0
 40
15.0
  1

  7
ROMANS8
100
AcDbText
  0
TEXT
  5
160D8
100
AcDbEntity
  8
STP
100
AcDbText
 10
36495.511367
 20
13487.64591
 30
0.0
 40
15.0
  1

  7
ROMANS8
100
AcDbText
  0
TEXT
  5
160D9
100
AcDbEntity
  8
STP
100
AcDbText
 10
36500.511367
 20
13511.931625
 30
0.0
 40
15.0
  1

  7
ROMANS8
100
AcDbText
  0
TEXT
  5
160DA
100
AcDbEntity
  8
STP
100
AcDbText
 10
38540.581363
 20
15433.553432
 30
0.0
 40
3.0
  1

  7
ROMANS8
100
AcDbText
  0
TEXT
  5
160DB
100
AcDbEntity
  8
BEMASS
100
AcDbText
 10
34724.081363
 20
14459.267718
 30
0.0
 40
50.0
  1

  7
ROMANS8
100
AcDbText
  0
TEXT
  5
160DC
100
AcDbEntity
  8
BEMASS
100
AcDbText
 10
38260.581363
 20
13341.410575
 30
0.0
 40
3.0
  1

  7
ROMANS8
100
AcDbText
  0
TEXT
  5
160DD
100
AcDbEntity
  8
BEMASS
100
AcDbText
 10
41214.081363
 20
14968.482003
 30
0.0
 40
15.0
  1

  7
ROMANS8
100
AcDbText
  0
TEXT
  5
160DE
100
AcDbEntity
  8
BEMASS
100
AcDbText
 10
24976.193097
 20
15645.280449
 30
0.0
 40
20.0
  1

  7
ROMANS8
100
AcDbText
  0
INSERT
  5
160DF
100
AcDbEntity
  8
ASHADE
 62
     1
100
AcDbBlockReference
  2
AVE_RENDER
 10
29710.081363
 20
16384.767718
 30
0.0
1001
AVE_RENDER
1002
{
1070
     2
1000
Pref
1070
    30
1070
    20
1070
     0
1070
     0
1000

1070
    10
1070
     0
1070
    30
1040
1.0
1070
     1
1040
0.3
1040
0.7
1040
0.0
1040
10.0
1010
-1.0
1020
-1.0
1030
-1.0
1040
0.3
1070
    49
1002
}
  0
INSERT
  5
160E0
100
AcDbEntity
  8
ASHADE
 62
     3
100
AcDbBlockReference
  2
AVE_RENDER
 10
29710.081363
 20
16384.767718
 30
0.0
1001
AVE_RENDER
1002
{
1070
     0
1000
Full Opt
1070
     0
1070
     1
1070
     1
1070
     1
1070
     0
1070
     0
1070
     0
1070
     1
1070
     1
1040
0.0001
1040
0.0001
1002
}
  0
INSERT
  5
160E1
100
AcDbEntity
  8
ASHADE
 62
     4
100
AcDbBlockReference
  2
AVE_RENDER
 10
29710.081363
 20
16384.767718
 30
0.0
1001
AVE_RENDER
1002
{
1070
     0
1000
Quick Opt
1070
     0
1070
     1
1070
     1
1070
     1
1070
     0
1070
     0
1070
     1
1002
}
  0
TEXT
  5
160E2
100
AcDbEntity
  8
STP
100
AcDbText
 10
24037.650294
 20
2997.938301
 30
0.0
 40
15.0
  1

  7
ROMANS8
100
AcDbText
  0
TEXT
  5
160E3
100
AcDbEntity
  8
STP
100
AcDbText
 10
24032.650294
 20
2973.652586
 30
0.0
 40
15.0
  1

  7
ROMANS8
100
AcDbText
  0
TEXT
  5
160E4
100
AcDbEntity
  8
STP
100
AcDbText
 10
28280.763964
 20
1383.692687
 30
0.0
 40
15.0
  1

  7
ROMANS8
100
AcDbText
  0
TEXT
  5
160E5
100
AcDbEntity
  8
STP
100
AcDbText
 10
24004.193967
 20
95.142308
 30
0.0
 40
15.0
  1

  7
ROMANS8
100
AcDbText
  0
TEXT
  5
160E6
100
AcDbEntity
  8
STP
100
AcDbText
 10
24009.193967
 20
119.428022
 30
0.0
 40
15.0
  1

  7
ROMANS8
100
AcDbText
  0
TEXT
  5
160E7
100
AcDbEntity
  8
STP
100
AcDbText
 10
26049.263964
 20
2041.04983
 30
0.0
 40
3.0
  1

  7
ROMANS8
100
AcDbText
  0
TEXT
  5
160E8
100
AcDbEntity
  8
STP
100
AcDbText
 10
34746.763964
 20
45.264115
 30
0.0
 40
15.0
  1

  7
ROMANS8
100
AcDbText
  0
TEXT
  5
160E9
100
AcDbEntity
  8
STP
100
AcDbText
 10
34746.763964
 20
2895.264115
 30
0.0
 40
15.0
  1

  7
ROMANS8
100
AcDbText
  0
TEXT
  5
160EA
100
AcDbEntity
  8
STP
100
AcDbText
 10
39766.763964
 20
6567.764115
 30
0.0
 40
15.0
  1

  7
ROMANS8
100
AcDbText
  0
TEXT
  5
160EB
100
AcDbEntity
  8
STP
100
AcDbText
 10
39492.263964
 20
6567.764115
 30
0.0
 40
15.0
  1

  7
ROMANS8
100
AcDbText
  0
TEXT
  5
160EC
100
AcDbEntity
  8
STP
100
AcDbText
 10
26184.576464
 20
136.639115
 30
0.0
 40
15.375
  1

  7
ROMANS8
100
AcDbText
  0
TEXT
  5
160ED
100
AcDbEntity
  8
STP
100
AcDbText
 10
26184.576464
 20
116.683758
 30
0.0
 40
15.375
  1

  7
ROMANS8
100
AcDbText
  0
TEXT
  5
160EE
100
AcDbEntity
  8
STP
100
AcDbText
 10
26184.576464
 20
96.540901
 30
0.0
 40
15.375
  1

  7
ROMANS8
100
AcDbText
  0
TEXT
  5
160EF
100
AcDbEntity
  8
STP
100
AcDbText
 10
26184.576464
 20
76.523044
 30
0.0
 40
15.375
  1

  7
ROMANS8
100
AcDbText
  0
TEXT
  5
160F0
100
AcDbEntity
  8
STP
100
AcDbText
 10
26184.576464
 20
56.567687
 30
0.0
 40
15.375
  1

  7
ROMANS8
100
AcDbText
  0
TEXT
  5
160F1
100
AcDbEntity
  8
STP
100
AcDbText
 10
30459.650294
 20
2982.438301
 30
0.0
 40
15.0
  1

  7
ROMANS8
100
AcDbText
  0
TEXT
  5
160F2
100
AcDbEntity
  8
STP
100
AcDbText
 10
30454.650294
 20
2958.152586
 30
0.0
 40
15.0
  1

  7
ROMANS8
100
AcDbText
  0
TEXT
  5
160F3
100
AcDbEntity
  8
STP
100
AcDbText
 10
34702.763964
 20
1368.192687
 30
0.0
 40
15.0
  1

  7
ROMANS8
100
AcDbText
  0
TEXT
  5
160F4
100
AcDbEntity
  8
STP
100
AcDbText
 10
30426.193967
 20
79.642308
 30
0.0
 40
15.0
  1

  7
ROMANS8
100
AcDbText
  0
TEXT
  5
160F5
100
AcDbEntity
  8
STP
100
AcDbText
 10
30431.193967
 20
103.928022
 30
0.0
 40
15.0
  1

  7
ROMANS8
100
AcDbText
  0
TEXT
  5
160F6
100
AcDbEntity
  8
STP
100
AcDbText
 10
32471.263964
 20
2025.54983
 30
0.0
 40
3.0
  1

  7
ROMANS8
100
AcDbText
  0
TEXT
  5
160F7
100
AcDbEntity
  8
BEMASS
100
AcDbText
 10
28654.763964
 20
1051.264115
 30
0.0
 40
50.0
  1

  7
ROMANS8
100
AcDbText
  0
TEXT
  5
160F8
100
AcDbEntity
  8
BEMASS
100
AcDbText
 10
32191.263964
 20
-66.593027
 30
0.0
 40
3.0
  1

  7
ROMANS8
100
AcDbText
  0
TEXT
  5
160F9
100
AcDbEntity
  8
BEMASS
100
AcDbText
 10
35144.763964
 20
1560.478401
 30
0.0
 40
15.0
  1

  7
ROMANS8
100
AcDbText
  0
TEXT
  5
160FA
100
AcDbEntity
  8
STP
100
AcDbText
 10
27432.760507
 20
2717.249732
 30
0.0
 40
3.0
  1

  7
ROMANS8
100
AcDbText
  0
TEXT
  5
160FB
100
AcDbEntity
  8
STP
100
AcDbText
 10
27145.315527
 20
3009.598415
 30
0.0
 40
15.0
  1

  7
ROMANS8
100
AcDbText
  0
TEXT
  5
160FC
100
AcDbEntity
  8
STP
100
AcDbText
 10
27140.315527
 20
2985.312701
 30
0.0
 40
15.0
  1

  7
ROMANS8
100
AcDbText
  0
TEXT
  5
160FD
100
AcDbEntity
  8
STP
100
AcDbText
 10
31388.429197
 20
1395.352801
 30
0.0
 40
15.0
  1

  7
ROMANS8
100
AcDbText
  0
TEXT
  5
160FE
100
AcDbEntity
  8
STP
100
AcDbText
 10
27111.8592
 20
106.802423
 30
0.0
 40
15.0
  1

  7
ROMANS8
100
AcDbText
  0
TEXT
  5
160FF
100
AcDbEntity
  8
STP
100
AcDbText
 10
27116.8592
 20
131.088137
 30
0.0
 40
15.0
  1

  7
ROMANS8
100
AcDbText
  0
TEXT
  5
16100
100
AcDbEntity
  8
STP
100
AcDbText
 10
29156.929197
 20
2052.709944
 30
0.0
 40
3.0
  1

  7
ROMANS8
100
AcDbText
  0
TEXT
  5
16101
100
AcDbEntity
  8
STP
100
AcDbText
 10
37854.429197
 20
56.92423
 30
0.0
 40
15.0
  1

  7
ROMANS8
100
AcDbText
  0
TEXT
  5
16102
100
AcDbEntity
  8
STP
100
AcDbText
 10
37854.429197
 20
2906.92423
 30
0.0
 40
15.0
  1

  7
ROMANS8
100
AcDbText
  0
TEXT
  5
16103
100
AcDbEntity
  8
STP
100
AcDbText
 10
42874.429197
 20
6579.42423
 30
0.0
 40
15.0
  1

  7
ROMANS8
100
AcDbText
  0
TEXT
  5
16104
100
AcDbEntity
  8
STP
100
AcDbText
 10
42599.929197
 20
6579.42423
 30
0.0
 40
15.0
  1

  7
ROMANS8
100
AcDbText
  0
TEXT
  5
16105
100
AcDbEntity
  8
STP
100
AcDbText
 10
29292.241697
 20
148.29923
 30
0.0
 40
15.375
  1

  7
ROMANS8
100
AcDbText
  0
TEXT
  5
16106
100
AcDbEntity
  8
STP
100
AcDbText
 10
29292.241697
 20
128.343873
 30
0.0
 40
15.375
  1

  7
ROMANS8
100
AcDbText
  0
TEXT
  5
16107
100
AcDbEntity
  8
STP
100
AcDbText
 10
29292.241697
 20
108.201016
 30
0.0
 40
15.375
  1

  7
ROMANS8
100
AcDbText
  0
TEXT
  5
16108
100
AcDbEntity
  8
STP
100
AcDbText
 10
29292.241697
 20
88.183159
 30
0.0
 40
15.375
  1

  7
ROMANS8
100
AcDbText
  0
TEXT
  5
16109
100
AcDbEntity
  8
STP
100
AcDbText
 10
29292.241697
 20
68.227801
 30
0.0
 40
15.375
  1

  7
ROMANS8
100
AcDbText
  0
TEXT
  5
1610A
100
AcDbEntity
  8
STP
100
AcDbText
 10
33567.315527
 20
2994.098415
 30
0.0
 40
15.0
  1

  7
ROMANS8
100
AcDbText
  0
TEXT
  5
1610B
100
AcDbEntity
  8
STP
100
AcDbText
 10
33562.315527
 20
2969.812701
 30
0.0
 40
15.0
  1

  7
ROMANS8
100
AcDbText
  0
TEXT
  5
1610C
100
AcDbEntity
  8
STP
100
AcDbText
 10
37810.429197
 20
1379.852801
 30
0.0
 40
15.0
  1

  7
ROMANS8
100
AcDbText
  0
TEXT
  5
1610D
100
AcDbEntity
  8
STP
100
AcDbText
 10
33533.8592
 20
91.302423
 30
0.0
 40
15.0
  1

  7
ROMANS8
100
AcDbText
  0
TEXT
  5
1610E
100
AcDbEntity
  8
STP
100
AcDbText
 10
33538.8592
 20
115.588137
 30
0.0
 40
15.0
  1

  7
ROMANS8
100
AcDbText
  0
TEXT
  5
1610F
100
AcDbEntity
  8
STP
100
AcDbText
 10
35578.929197
 20
2037.209944
 30
0.0
 40
3.0
  1

  7
ROMANS8
100
AcDbText
  0
TEXT
  5
16110
100
AcDbEntity
  8
BEMASS
100
AcDbText
 10
31762.429197
 20
1062.92423
 30
0.0
 40
50.0
  1

  7
ROMANS8
100
AcDbText
  0
TEXT
  5
16111
100
AcDbEntity
  8
BEMASS
100
AcDbText
 10
35298.929197
 20
-54.932913
 30
0.0
 40
3.0
  1

  7
ROMANS8
100
AcDbText
  0
TEXT
  5
16112
100
AcDbEntity
  8
BEMASS
100
AcDbText
 10
38252.429197
 20
1572.138516
 30
0.0
 40
15.0
  1

  7
ROMANS8
100
AcDbText
  0
TEXT
  5
16113
100
AcDbEntity
  8
STP
100
AcDbText
 10
30540.42574
 20
2728.909847
 30
0.0
 40
3.0
  1

  7
ROMANS8
100
AcDbText
  0
LINE
  5
19FAB
100
AcDbEntity
  8
HILF
  6
CONTINUOUS
100
AcDbLine
 10
-325.254588
 20
781.640978
 30
0.0
 11
-325.254588
 21
781.640978
 31
0.0
  0
MTEXT
  5
1A02B
100
AcDbEntity
  8
WANNE
100
AcDbMText
 10
942.559908
 20
2699.020448
 30
0.0
 40
20.0
 41
0.0
 71
     6
 72
     1
  1
\A1;
  7
ROMANS8
  0
TEXT
  5
1B757
100
AcDbEntity
  8
STP
100
AcDbText
 10
3196.710932
 20
8229.563411
 30
0.0
 40
15.0
  1

  7
ROMANS8
100
AcDbText
  0
TEXT
  5
1B758
100
AcDbEntity
  8
STP
100
AcDbText
 10
3191.710932
 20
8205.277697
 30
0.0
 40
15.0
  1

  7
ROMANS8
100
AcDbText
  0
TEXT
  5
1B759
100
AcDbEntity
  8
STP
100
AcDbText
 10
7439.824602
 20
6615.317798
 30
0.0
 40
15.0
  1

  7
ROMANS8
100
AcDbText
  0
TEXT
  5
1B75A
100
AcDbEntity
  8
STP
100
AcDbText
 10
3163.254606
 20
5326.767419
 30
0.0
 40
15.0
  1

  7
ROMANS8
100
AcDbText
  0
TEXT
  5
1B75B
100
AcDbEntity
  8
STP
100
AcDbText
 10
3168.254606
 20
5351.053133
 30
0.0
 40
15.0
  1

  7
ROMANS8
100
AcDbText
  0
TEXT
  5
1B75C
100
AcDbEntity
  8
STP
100
AcDbText
 10
5208.324602
 20
7272.67494
 30
0.0
 40
3.0
  1

  7
ROMANS8
100
AcDbText
  0
TEXT
  5
1B75D
100
AcDbEntity
  8
STP
100
AcDbText
 10
7254.710932
 20
8697.063411
 30
0.0
 40
15.0
  1

  7
ROMANS8
100
AcDbText
  0
TEXT
  5
1B75E
100
AcDbEntity
  8
STP
100
AcDbText
 10
7249.710932
 20
8672.777697
 30
0.0
 40
15.0
  1

  7
ROMANS8
100
AcDbText
  0
TEXT
  5
1B75F
100
AcDbEntity
  8
STP
100
AcDbText
 10
11497.824602
 20
7082.817798
 30
0.0
 40
15.0
  1

  7
ROMANS8
100
AcDbText
  0
TEXT
  5
1B760
100
AcDbEntity
  8
STP
100
AcDbText
 10
7221.254606
 20
5794.267419
 30
0.0
 40
15.0
  1

  7
ROMANS8
100
AcDbText
  0
TEXT
  5
1B761
100
AcDbEntity
  8
STP
100
AcDbText
 10
7226.254606
 20
5818.553133
 30
0.0
 40
15.0
  1

  7
ROMANS8
100
AcDbText
  0
TEXT
  5
1B762
100
AcDbEntity
  8
STP
100
AcDbText
 10
9266.324602
 20
7740.17494
 30
0.0
 40
3.0
  1

  7
ROMANS8
100
AcDbText
  0
TEXT
  5
1B763
100
AcDbEntity
  8
BEMASS
100
AcDbText
 10
5449.824602
 20
6765.889226
 30
0.0
 40
50.0
  1

  7
ROMANS8
100
AcDbText
  0
TEXT
  5
1B764
100
AcDbEntity
  8
BEMASS
100
AcDbText
 10
8986.324602
 20
5648.032083
 30
0.0
 40
3.0
  1

  7
ROMANS8
100
AcDbText
  0
TEXT
  5
1B765
100
AcDbEntity
  8
BEMASS
100
AcDbText
 10
11939.824602
 20
7275.103512
 30
0.0
 40
15.0
  1

  7
ROMANS8
100
AcDbText
  0
TEXT
  5
1B766
100
AcDbEntity
  8
STP
100
AcDbText
 10
7605.210932
 20
9605.063411
 30
0.0
 40
15.0
  1

  7
ROMANS8
100
AcDbText
  0
TEXT
  5
1B767
100
AcDbEntity
  8
STP
100
AcDbText
 10
7600.210932
 20
9580.777697
 30
0.0
 40
15.0
  1

  7
ROMANS8
100
AcDbText
  0
TEXT
  5
1B768
100
AcDbEntity
  8
STP
100
AcDbText
 10
11848.324602
 20
7990.817798
 30
0.0
 40
15.0
  1

  7
ROMANS8
100
AcDbText
  0
TEXT
  5
1B769
100
AcDbEntity
  8
STP
100
AcDbText
 10
7571.754606
 20
6702.267419
 30
0.0
 40
15.0
  1

  7
ROMANS8
100
AcDbText
  0
TEXT
  5
1B76A
100
AcDbEntity
  8
STP
100
AcDbText
 10
7576.754606
 20
6726.553133
 30
0.0
 40
15.0
  1

  7
ROMANS8
100
AcDbText
  0
TEXT
  5
1B76B
100
AcDbEntity
  8
STP
100
AcDbText
 10
9616.824602
 20
8648.17494
 30
0.0
 40
3.0
  1

  7
ROMANS8
100
AcDbText
  0
TEXT
  5
1B76C
100
AcDbEntity
  8
BEMASS
100
AcDbText
 10
5800.324602
 20
7673.889226
 30
0.0
 40
50.0
  1

  7
ROMANS8
100
AcDbText
  0
TEXT
  5
1B76D
100
AcDbEntity
  8
BEMASS
100
AcDbText
 10
9336.824602
 20
6556.032083
 30
0.0
 40
3.0
  1

  7
ROMANS8
100
AcDbText
  0
TEXT
  5
1B76E
100
AcDbEntity
  8
BEMASS
100
AcDbText
 10
12290.324602
 20
8183.103512
 30
0.0
 40
15.0
  1

  7
ROMANS8
100
AcDbText
  0
TEXT
  5
1B76F
100
AcDbEntity
  8
STP
100
AcDbText
 10
4578.321146
 20
9339.874843
 30
0.0
 40
3.0
  1

  7
ROMANS8
100
AcDbText
  0
TEXT
  5
1B770
100
AcDbEntity
  8
STP
100
AcDbText
 10
3193.254606
 20
5329.267419
 30
0.0
 40
15.0
  1

  7
ROMANS8
100
AcDbText
  0
MTEXT
  5
1B771
100
AcDbEntity
  8
TT
100
AcDbMText
 10
5155.084908
 20
5627.363897
 30
0.0
 40
25.0
 41
0.0
 71
     7
 72
     5
  1

  7
ROMANS
  0
MTEXT
  5
1B772
100
AcDbEntity
  8
BEMASS
100
AcDbMText
 10
1708.440572
 20
5755.787973
 30
0.0
 40
25.0
 41
0.0
 71
     9
 72
     5
  1
 
  7
ROMANS
  0
MTEXT
  5
1B773
100
AcDbEntity
  8
BEMASS
100
AcDbMText
 10
1536.065921
 20
5710.962676
 30
0.0
 40
25.0
 41
0.0
 71
     9
 72
     5
  1

  7
ROMANS
  0
MTEXT
  5
1B774
100
AcDbEntity
  8
BEMASS
100
AcDbMText
 10
2111.110454
 20
6076.461992
 30
0.0
 40
25.0
 41
0.0
 71
     7
 72
     5
  1

  7
ROMANS
  0
MTEXT
  5
1B775
100
AcDbEntity
  8
BEMASS
100
AcDbMText
 10
165.764682
 20
6079.189597
 30
0.0
 40
25.0
 41
0.0
 71
     9
 72
     5
  1

  7
ROMANS
  0
MTEXT
  5
1B776
100
AcDbEntity
  8
BEMASS
100
AcDbMText
 10
4733.317821
 20
5638.827562
 30
0.0
 40
6.0
 41
0.435431
 71
     1
 72
     5
  1

  7
ILKA2
  0
MTEXT
  5
1B777
100
AcDbEntity
  8
BEMASS
100
AcDbMText
 10
4677.230523
 20
5561.676819
 30
0.0
 40
5.0
 41
0.0
 71
     7
 72
     5
  1

  7
ILKA2
  0
INSERT
  5
1B778
100
AcDbEntity
  8
ASHADE
 62
     1
100
AcDbBlockReference
  2
AVE_RENDER
 10
4315.788318
 20
5156.826726
 30
0.0
1001
AVE_RENDER
1002
{
1070
     6
1000
Pref
1070
    30
1070
    20
1070
     1
1070
     0
1000

1070
    10
1070
     1
1070
    30
1040
1.0
1070
     1
1040
0.3
1040
0.7
1040
0.0
1040
10.0
1010
-1.0
1020
-1.0
1030
-1.0
1040
0.3
1070
    49
1070
     0
1070
     0
1010
1.0
1020
1.0
1030
1.0
1040
45.0
1070
     1
1070
     0
1000
WCS
1040
0.0
1002
}
  0
INSERT
  5
1B779
100
AcDbEntity
  8
ASHADE
 62
     3
100
AcDbBlockReference
  2
AVE_RENDER
 10
4315.788318
 20
5156.826726
 30
0.0
1001
AVE_RENDER
1002
{
1070
     0
1000
Full Opt
1070
     0
1070
     1
1070
     1
1070
     1
1070
     0
1070
     0
1070
     0
1070
     1
1070
     1
1040
0.0001
1040
0.0001
1002
}
  0
INSERT
  5
1B77A
100
AcDbEntity
  8
ASHADE
 62
     4
100
AcDbBlockReference
  2
AVE_RENDER
 10
4315.788318
 20
5156.826726
 30
0.0
1001
AVE_RENDER
1002
{
1070
     0
1000
Quick Opt
1070
     0
1070
     1
1070
     1
1070
     1
1070
     0
1070
     0
1070
     1
1002
}
  0
INSERT
  5
1B77B
100
AcDbEntity
  8
ASHADE
 62
     5
100
AcDbBlockReference
  2
AVE_RENDER
 10
4315.788318
 20
5156.826726
 30
0.0
1001
AVE_RENDER
1002
{
1070
     1
1000
Scanl Opt
1070
     2
1070
     0
1070
     2
1040
2.0
1040
4.0
1070
     0
1070
     1
1070
     0
1040
0.03
1002
}
  0
INSERT
  5
1B77C
100
AcDbEntity
  8
ASHADE
 62
     6
100
AcDbBlockReference
  2
AVE_RENDER
 10
4315.788318
 20
5156.826726
 30
0.0
1001
AVE_RENDER
1002
{
1070
     2
1000
Raytr Opt
1070
     2
1070
     0
1070
     2
1040
2.0
1040
4.0
1070
     0
1070
     1
1070
     1
1040
0.03
1070
     3
1040
0.03
1002
}
  0
INSERT
  5
1B77D
100
AcDbEntity
  8
ASHADE
 62
     7
100
AcDbBlockReference
  2
AVE_RENDER
 10
4315.788318
 20
5156.826726
 30
0.0
1001
AVE_RENDER
1002
{
1070
     0
1000
RFile Opt
1070
     5
1070
   640
1070
   480
1070
 10000
1070
     3
1070
    32
1070
    24
1070
     0
1070
     0
1070
     0
1070
     1
1070
     0
1070
     0
1070
     0
1002
}
  0
INSERT
  5
1B77E
100
AcDbEntity
  8
ASHADE
 62
     8
100
AcDbBlockReference
  2
AVE_RENDER
 10
4315.788318
 20
5156.826726
 30
0.0
1001
AVE_RENDER
1002
{
1070
     0
1000
Fog Opt
1070
     0
1070
     0
1040
0.0
1040
1.0
1040
0.0
1040
1.0
1010
0.5
1020
0.5
1030
0.5
1002
}
  0
INSERT
  5
1B77F
100
AcDbEntity
  8
ASHADE
 62
     9
100
AcDbBlockReference
  2
AVE_RENDER
 10
4315.788318
 20
5156.826726
 30
0.0
1001
AVE_RENDER
1002
{
1070
     0
1000
BG Opt
1070
     0
1070
     1
1010
0.0
1020
0.0
1030
0.0
1010
1.0
1020
0.0
1030
0.0
1010
0.0
1020
1.0
1030
0.0
1010
0.0
1020
0.0
1030
1.0
1040
0.5
1040
0.33
1040
0.0
1000

1070
     1
1000

1070
     1
1070
     1
1040
1.0
1040
1.0
1040
0.0
1040
0.0
1070
     0
1002
}
  0
INSERT
  5
1B780
100
AcDbEntity
  8
ASHADE
 62
     1
100
AcDbBlockReference
  2
AVE_GLOBAL
 10
4315.788318
 20
5156.826726
 30
0.0
1001
AVE_MATERIAL
1002
{
1000
*GLOBAL*
1000
1
1000
Globales Material.
1002
{
1002
}
1002
{
1070
    63
1002
{
1002
{
1010
-1.0
1020
-1.0
1030
-1.0
1002
}
1040
0.1
1000

1040
0.0
1002
{
1002
}
1040
0.0
1002
{
1002
}
1040
0.0
1002
}
1002
{
1002
{
1010
-1.0
1020
-1.0
1030
-1.0
1002
}
1040
0.7
1000

1040
0.0
1002
{
1002
}
1040
0.0
1002
{
1002
}
1040
0.0
1002
}
1002
{
1002
{
1010
-1.0
1020
-1.0
1030
-1.0
1002
}
1040
0.2
1000

1040
0.0
1002
{
1002
}
1040
0.0
1002
{
1002
}
1040
0.0
1002
}
1002
{
1070
     0
1002
{
1070
     1
1002
{
1040
1.0
1040
1.0
1000

1040
0.0
1002
{
1002
}
1040
0.0
1002
{
1002
}
1040
0.0
1002
}
1002
}
1040
1.0
1040
0.0
1040
0.0
1002
}
1002
{
1040
1.0
1040
1.0
1000

1040
0.0
1002
{
1002
}
1040
0.0
1002
{
1002
}
1040
0.0
1002
}
1002
{
1040
0.5
1040
1.0
1000

1040
0.0
1002
{
1002
}
1040
0.0
1002
{
1002
}
1040
0.0
1002
}
1002
{
1070
     0
1040
0.0
1002
{
1002
}
1040
1.0
1002
{
1002
}
1040
0.0
1002
}
1002
{
1040
0.0
1002
{
1002
{
1010
0.0
1020
0.0
1030
0.0
1002
}
1040
1.0
1000

1040
0.0
1002
{
1002
}
1040
0.0
1002
{
1002
}
1040
0.0
1002
}
1002
}
1002
{
1002
{
1070
     1
1002
{
1040
0.0
1040
1.0
1000

1040
0.0
1002
{
1002
}
1040
0.0
1002
{
1002
}
1040
0.0
1002
}
1002
}
1040
0.0
1002
{
1002
}
1010
1.0
1020
0.0
1030
0.0
1010
0.0
1020
1.0
1030
0.0
1010
0.0
1020
0.0
1030
1.0
1070
     0
1002
}
1002
{
1002
{
1040
1.0
1040
1.0
1002
{
1070
     1
1002
{
1040
1.0
1040
1.0
1000

1040
0.0
1002
{
1002
}
1040
0.0
1002
{
1002
}
1040
0.0
1002
}
1002
}
1002
}
1070
     0
1040
0.0
1002
{
1002
}
1002
}
1002
{
1002
}
1002
}
1002
{
1071
        3
1070
     3
1070
     0
1002
{
1070
     2
1070
     0
1070
     0
1040
0.0
1002
}
1070
     0
1070
     2
1002
{
1002
}
1002
}
1002
{
1040
8030.0
1040
190.300003
1040
0.305
1040
228.0
1040
545.0
1040
14.0
1040
17.4
1040
0.456
1002
}
1002
}
  0
MTEXT
  5
1B781
100
AcDbEntity
  8
BEMASS
100
AcDbMText
 10
7811.788318
 20
8689.826726
 30
0.0
 40
20.0
 41
0.0
 71
     7
 72
     5
  1
\P
  7
ROMANS
  0
MTEXT
  5
1B782
100
AcDbEntity
  8
BEMASS
100
AcDbMText
 10
7155.288318
 20
8103.826726
 30
0.0
 40
20.0
 41
0.0
 71
     9
 72
     5
  1
\P
  7
ROMANS
  0
TEXT
  5
1B783
100
AcDbEntity
  8
STP
100
AcDbText
 10
14855.674649
 20
9371.000911
 30
0.0
 40
15.0
  1

  7
ROMANS8
100
AcDbText
  0
TEXT
  5
1B784
100
AcDbEntity
  8
STP
100
AcDbText
 10
14850.674649
 20
9346.715197
 30
0.0
 40
15.0
  1

  7
ROMANS8
100
AcDbText
  0
TEXT
  5
1B785
100
AcDbEntity
  8
STP
100
AcDbText
 10
19098.788318
 20
7756.755297
 30
0.0
 40
15.0
  1

  7
ROMANS8
100
AcDbText
  0
TEXT
  5
1B786
100
AcDbEntity
  8
STP
100
AcDbText
 10
14822.218322
 20
6468.204919
 30
0.0
 40
15.0
  1

  7
ROMANS8
100
AcDbText
  0
TEXT
  5
1B787
100
AcDbEntity
  8
STP
100
AcDbText
 10
14827.218322
 20
6492.490633
 30
0.0
 40
15.0
  1

  7
ROMANS8
100
AcDbText
  0
TEXT
  5
1B788
100
AcDbEntity
  8
STP
100
AcDbText
 10
16867.288318
 20
8414.11244
 30
0.0
 40
3.0
  1

  7
ROMANS8
100
AcDbText
  0
TEXT
  5
1B789
100
AcDbEntity
  8
STP
100
AcDbText
 10
25564.788318
 20
6418.326726
 30
0.0
 40
15.0
  1

  7
ROMANS8
100
AcDbText
  0
TEXT
  5
1B78A
100
AcDbEntity
  8
STP
100
AcDbText
 10
25564.788318
 20
9268.326726
 30
0.0
 40
15.0
  1

  7
ROMANS8
100
AcDbText
  0
TEXT
  5
1B78B
100
AcDbEntity
  8
STP
100
AcDbText
 10
30584.788318
 20
12940.826726
 30
0.0
 40
15.0
  1

  7
ROMANS8
100
AcDbText
  0
TEXT
  5
1B78C
100
AcDbEntity
  8
STP
100
AcDbText
 10
30310.288318
 20
12940.826726
 30
0.0
 40
15.0
  1

  7
ROMANS8
100
AcDbText
  0
TEXT
  5
1B78D
100
AcDbEntity
  8
STP
100
AcDbText
 10
17002.600818
 20
6509.701726
 30
0.0
 40
15.375
  1

  7
ROMANS8
100
AcDbText
  0
TEXT
  5
1B78E
100
AcDbEntity
  8
STP
100
AcDbText
 10
17002.600818
 20
6489.746369
 30
0.0
 40
15.375
  1

  7
ROMANS8
100
AcDbText
  0
TEXT
  5
1B78F
100
AcDbEntity
  8
STP
100
AcDbText
 10
17002.600818
 20
6469.603512
 30
0.0
 40
15.375
  1

  7
ROMANS8
100
AcDbText
  0
TEXT
  5
1B790
100
AcDbEntity
  8
STP
100
AcDbText
 10
17002.600818
 20
6449.585655
 30
0.0
 40
15.375
  1

  7
ROMANS8
100
AcDbText
  0
TEXT
  5
1B791
100
AcDbEntity
  8
STP
100
AcDbText
 10
17002.600818
 20
6429.630297
 30
0.0
 40
15.375
  1

  7
ROMANS8
100
AcDbText
  0
TEXT
  5
1B792
100
AcDbEntity
  8
STP
100
AcDbText
 10
21277.674649
 20
9355.500911
 30
0.0
 40
15.0
  1

  7
ROMANS8
100
AcDbText
  0
TEXT
  5
1B793
100
AcDbEntity
  8
STP
100
AcDbText
 10
21272.674649
 20
9331.215197
 30
0.0
 40
15.0
  1

  7
ROMANS8
100
AcDbText
  0
TEXT
  5
1B794
100
AcDbEntity
  8
STP
100
AcDbText
 10
25520.788318
 20
7741.255297
 30
0.0
 40
15.0
  1

  7
ROMANS8
100
AcDbText
  0
TEXT
  5
1B795
100
AcDbEntity
  8
STP
100
AcDbText
 10
21244.218322
 20
6452.704919
 30
0.0
 40
15.0
  1

  7
ROMANS8
100
AcDbText
  0
TEXT
  5
1B796
100
AcDbEntity
  8
STP
100
AcDbText
 10
21249.218322
 20
6476.990633
 30
0.0
 40
15.0
  1

  7
ROMANS8
100
AcDbText
  0
TEXT
  5
1B797
100
AcDbEntity
  8
STP
100
AcDbText
 10
23289.288318
 20
8398.61244
 30
0.0
 40
3.0
  1

  7
ROMANS8
100
AcDbText
  0
TEXT
  5
1B798
100
AcDbEntity
  8
BEMASS
100
AcDbText
 10
19472.788318
 20
7424.326726
 30
0.0
 40
50.0
  1

  7
ROMANS8
100
AcDbText
  0
TEXT
  5
1B799
100
AcDbEntity
  8
BEMASS
100
AcDbText
 10
23009.288318
 20
6306.469583
 30
0.0
 40
3.0
  1

  7
ROMANS8
100
AcDbText
  0
TEXT
  5
1B79A
100
AcDbEntity
  8
BEMASS
100
AcDbText
 10
25962.788318
 20
7933.541012
 30
0.0
 40
15.0
  1

  7
ROMANS8
100
AcDbText
  0
TEXT
  5
1B79B
100
AcDbEntity
  8
STP
100
AcDbText
 10
18250.784862
 20
9090.312343
 30
0.0
 40
3.0
  1

  7
ROMANS8
100
AcDbText
  0
TEXT
  5
1B79C
100
AcDbEntity
  8
STP
100
AcDbText
 10
17682.663318
 20
6427.451726
 30
0.0
 40
15.375
  1

  7
ROMANS8
100
AcDbText
  0
TEXT
  5
1B79D
100
AcDbEntity
  8
STP
100
AcDbText
 10
21485.174649
 20
11849.500911
 30
0.0
 40
15.0
  1

  7
ROMANS8
100
AcDbText
  0
TEXT
  5
1B79E
100
AcDbEntity
  8
STP
100
AcDbText
 10
21480.174649
 20
11825.215197
 30
0.0
 40
15.0
  1

  7
ROMANS8
100
AcDbText
  0
TEXT
  5
1B79F
100
AcDbEntity
  8
STP
100
AcDbText
 10
25728.288318
 20
10235.255297
 30
0.0
 40
15.0
  1

  7
ROMANS8
100
AcDbText
  0
TEXT
  5
1B7A0
100
AcDbEntity
  8
STP
100
AcDbText
 10
21451.718322
 20
8946.704919
 30
0.0
 40
15.0
  1

  7
ROMANS8
100
AcDbText
  0
TEXT
  5
1B7A1
100
AcDbEntity
  8
STP
100
AcDbText
 10
21456.718322
 20
8970.990633
 30
0.0
 40
15.0
  1

  7
ROMANS8
100
AcDbText
  0
TEXT
  5
1B7A2
100
AcDbEntity
  8
STP
100
AcDbText
 10
23496.788318
 20
10892.61244
 30
0.0
 40
3.0
  1

  7
ROMANS8
100
AcDbText
  0
TEXT
  5
1B7A3
100
AcDbEntity
  8
BEMASS
100
AcDbText
 10
19680.288318
 20
9918.326726
 30
0.0
 40
50.0
  1

  7
ROMANS8
100
AcDbText
  0
TEXT
  5
1B7A4
100
AcDbEntity
  8
BEMASS
100
AcDbText
 10
23216.788318
 20
8800.469583
 30
0.0
 40
3.0
  1

  7
ROMANS8
100
AcDbText
  0
TEXT
  5
1B7A5
100
AcDbEntity
  8
BEMASS
100
AcDbText
 10
26170.288318
 20
10427.541012
 30
0.0
 40
15.0
  1

  7
ROMANS8
100
AcDbText
  0
TEXT
  5
1B7A6
100
AcDbEntity
  8
STP
100
AcDbText
 10
18458.284862
 20
11584.312343
 30
0.0
 40
3.0
  1

  7
ROMANS8
100
AcDbText
  0
TEXT
  5
1B7A7
100
AcDbEntity
  8
STP
100
AcDbText
 10
28452.174649
 20
14611.500911
 30
0.0
 40
15.0
  1

  7
ROMANS8
100
AcDbText
  0
TEXT
  5
1B7A8
100
AcDbEntity
  8
STP
100
AcDbText
 10
28447.174649
 20
14587.215197
 30
0.0
 40
15.0
  1

  7
ROMANS8
100
AcDbText
  0
TEXT
  5
1B7A9
100
AcDbEntity
  8
STP
100
AcDbText
 10
32695.288318
 20
12997.255297
 30
0.0
 40
15.0
  1

  7
ROMANS8
100
AcDbText
  0
TEXT
  5
1B7AA
100
AcDbEntity
  8
STP
100
AcDbText
 10
28418.718322
 20
11708.704919
 30
0.0
 40
15.0
  1

  7
ROMANS8
100
AcDbText
  0
TEXT
  5
1B7AB
100
AcDbEntity
  8
STP
100
AcDbText
 10
28423.718322
 20
11732.990633
 30
0.0
 40
15.0
  1

  7
ROMANS8
100
AcDbText
  0
TEXT
  5
1B7AC
100
AcDbEntity
  8
STP
100
AcDbText
 10
30463.788318
 20
13654.61244
 30
0.0
 40
3.0
  1

  7
ROMANS8
100
AcDbText
  0
TEXT
  5
1B7AD
100
AcDbEntity
  8
STP
100
AcDbText
 10
39161.288318
 20
11658.826726
 30
0.0
 40
15.0
  1

  7
ROMANS8
100
AcDbText
  0
TEXT
  5
1B7AE
100
AcDbEntity
  8
STP
100
AcDbText
 10
39161.288318
 20
14508.826726
 30
0.0
 40
15.0
  1

  7
ROMANS8
100
AcDbText
  0
TEXT
  5
1B7AF
100
AcDbEntity
  8
STP
100
AcDbText
 10
44181.288318
 20
18181.326726
 30
0.0
 40
15.0
  1

  7
ROMANS8
100
AcDbText
  0
TEXT
  5
1B7B0
100
AcDbEntity
  8
STP
100
AcDbText
 10
43906.788318
 20
18181.326726
 30
0.0
 40
15.0
  1

  7
ROMANS8
100
AcDbText
  0
TEXT
  5
1B7B1
100
AcDbEntity
  8
STP
100
AcDbText
 10
34874.174649
 20
14596.000911
 30
0.0
 40
15.0
  1

  7
ROMANS8
100
AcDbText
  0
TEXT
  5
1B7B2
100
AcDbEntity
  8
STP
100
AcDbText
 10
34869.174649
 20
14571.715197
 30
0.0
 40
15.0
  1

  7
ROMANS8
100
AcDbText
  0
TEXT
  5
1B7B3
100
AcDbEntity
  8
STP
100
AcDbText
 10
39117.288318
 20
12981.755297
 30
0.0
 40
15.0
  1

  7
ROMANS8
100
AcDbText
  0
TEXT
  5
1B7B4
100
AcDbEntity
  8
STP
100
AcDbText
 10
34840.718322
 20
11693.204919
 30
0.0
 40
15.0
  1

  7
ROMANS8
100
AcDbText
  0
TEXT
  5
1B7B5
100
AcDbEntity
  8
STP
100
AcDbText
 10
34845.718322
 20
11717.490633
 30
0.0
 40
15.0
  1

  7
ROMANS8
100
AcDbText
  0
TEXT
  5
1B7B6
100
AcDbEntity
  8
STP
100
AcDbText
 10
36885.788318
 20
13639.11244
 30
0.0
 40
3.0
  1

  7
ROMANS8
100
AcDbText
  0
TEXT
  5
1B7B7
100
AcDbEntity
  8
BEMASS
100
AcDbText
 10
33069.288318
 20
12664.826726
 30
0.0
 40
50.0
  1

  7
ROMANS8
100
AcDbText
  0
TEXT
  5
1B7B8
100
AcDbEntity
  8
BEMASS
100
AcDbText
 10
36605.788318
 20
11546.969583
 30
0.0
 40
3.0
  1

  7
ROMANS8
100
AcDbText
  0
TEXT
  5
1B7B9
100
AcDbEntity
  8
BEMASS
100
AcDbText
 10
39559.288318
 20
13174.041012
 30
0.0
 40
15.0
  1

  7
ROMANS8
100
AcDbText
  0
TEXT
  5
1B7BA
100
AcDbEntity
  8
STP
100
AcDbText
 10
31847.284862
 20
14330.812343
 30
0.0
 40
3.0
  1

  7
ROMANS8
100
AcDbText
  0
TEXT
  5
1B7BB
100
AcDbEntity
  8
STP
100
AcDbText
 10
28659.674649
 20
13502.000911
 30
0.0
 40
15.0
  1

  7
ROMANS8
100
AcDbText
  0
TEXT
  5
1B7BC
100
AcDbEntity
  8
STP
100
AcDbText
 10
28654.674649
 20
13477.715197
 30
0.0
 40
15.0
  1

  7
ROMANS8
100
AcDbText
  0
TEXT
  5
1B7BD
100
AcDbEntity
  8
STP
100
AcDbText
 10
32902.788318
 20
11887.755297
 30
0.0
 40
15.0
  1

  7
ROMANS8
100
AcDbText
  0
TEXT
  5
1B7BE
100
AcDbEntity
  8
STP
100
AcDbText
 10
28626.218322
 20
10599.204919
 30
0.0
 40
15.0
  1

  7
ROMANS8
100
AcDbText
  0
TEXT
  5
1B7BF
100
AcDbEntity
  8
STP
100
AcDbText
 10
28631.218322
 20
10623.490633
 30
0.0
 40
15.0
  1

  7
ROMANS8
100
AcDbText
  0
TEXT
  5
1B7C0
100
AcDbEntity
  8
BEMASS
100
AcDbText
 10
25035.400052
 20
18567.339458
 30
0.0
 40
20.0
  1

  7
ROMANS8
100
AcDbText
  0
TEXT
  5
1B7C1
100
AcDbEntity
  8
STP
100
AcDbText
 10
28825.174649
 20
18042.000911
 30
0.0
 40
15.0
  1

  7
ROMANS8
100
AcDbText
  0
TEXT
  5
1B7C2
100
AcDbEntity
  8
STP
100
AcDbText
 10
28820.174649
 20
18017.715197
 30
0.0
 40
15.0
  1

  7
ROMANS8
100
AcDbText
  0
TEXT
  5
1B7C3
100
AcDbEntity
  8
STP
100
AcDbText
 10
33068.288318
 20
16427.755297
 30
0.0
 40
15.0
  1

  7
ROMANS8
100
AcDbText
  0
TEXT
  5
1B7C4
100
AcDbEntity
  8
STP
100
AcDbText
 10
28791.718322
 20
15139.204919
 30
0.0
 40
15.0
  1

  7
ROMANS8
100
AcDbText
  0
TEXT
  5
1B7C5
100
AcDbEntity
  8
STP
100
AcDbText
 10
28796.718322
 20
15163.490633
 30
0.0
 40
15.0
  1

  7
ROMANS8
100
AcDbText
  0
TEXT
  5
1B7C6
100
AcDbEntity
  8
STP
100
AcDbText
 10
32903.174649
 20
18045.000911
 30
0.0
 40
15.0
  1

  7
ROMANS8
100
AcDbText
  0
TEXT
  5
1B7C7
100
AcDbEntity
  8
STP
100
AcDbText
 10
32898.174649
 20
18020.715197
 30
0.0
 40
15.0
  1

  7
ROMANS8
100
AcDbText
  0
TEXT
  5
1B7C8
100
AcDbEntity
  8
STP
100
AcDbText
 10
37146.288318
 20
16430.755297
 30
0.0
 40
15.0
  1

  7
ROMANS8
100
AcDbText
  0
TEXT
  5
1B7C9
100
AcDbEntity
  8
STP
100
AcDbText
 10
32869.718322
 20
15142.204919
 30
0.0
 40
15.0
  1

  7
ROMANS8
100
AcDbText
  0
TEXT
  5
1B7CA
100
AcDbEntity
  8
STP
100
AcDbText
 10
32874.718322
 20
15166.490633
 30
0.0
 40
15.0
  1

  7
ROMANS8
100
AcDbText
  0
TEXT
  5
1B7CB
100
AcDbEntity
  8
STP
100
AcDbText
 10
34914.788318
 20
17088.11244
 30
0.0
 40
3.0
  1

  7
ROMANS8
100
AcDbText
  0
TEXT
  5
1B7CC
100
AcDbEntity
  8
STP
100
AcDbText
 10
36961.174649
 20
18512.500911
 30
0.0
 40
15.0
  1

  7
ROMANS8
100
AcDbText
  0
TEXT
  5
1B7CD
100
AcDbEntity
  8
STP
100
AcDbText
 10
36956.174649
 20
18488.215197
 30
0.0
 40
15.0
  1

  7
ROMANS8
100
AcDbText
  0
TEXT
  5
1B7CE
100
AcDbEntity
  8
STP
100
AcDbText
 10
41204.288318
 20
16898.255297
 30
0.0
 40
15.0
  1

  7
ROMANS8
100
AcDbText
  0
TEXT
  5
1B7CF
100
AcDbEntity
  8
STP
100
AcDbText
 10
36927.718322
 20
15609.704919
 30
0.0
 40
15.0
  1

  7
ROMANS8
100
AcDbText
  0
TEXT
  5
1B7D0
100
AcDbEntity
  8
STP
100
AcDbText
 10
36932.718322
 20
15633.990633
 30
0.0
 40
15.0
  1

  7
ROMANS8
100
AcDbText
  0
TEXT
  5
1B7D1
100
AcDbEntity
  8
STP
100
AcDbText
 10
38972.788318
 20
17555.61244
 30
0.0
 40
3.0
  1

  7
ROMANS8
100
AcDbText
  0
TEXT
  5
1B7D2
100
AcDbEntity
  8
BEMASS
100
AcDbText
 10
35156.288318
 20
16581.326726
 30
0.0
 40
50.0
  1

  7
ROMANS8
100
AcDbText
  0
TEXT
  5
1B7D3
100
AcDbEntity
  8
BEMASS
100
AcDbText
 10
38692.788318
 20
15463.469583
 30
0.0
 40
3.0
  1

  7
ROMANS8
100
AcDbText
  0
TEXT
  5
1B7D4
100
AcDbEntity
  8
BEMASS
100
AcDbText
 10
41646.288318
 20
17090.541012
 30
0.0
 40
15.0
  1

  7
ROMANS8
100
AcDbText
  0
TEXT
  5
1B7D5
100
AcDbEntity
  8
BEMASS
100
AcDbText
 10
25408.400052
 20
17767.339458
 30
0.0
 40
20.0
  1

  7
ROMANS8
100
AcDbText
  0
INSERT
  5
1B7D6
100
AcDbEntity
  8
ASHADE
 62
     1
100
AcDbBlockReference
  2
AVE_RENDER
 10
30142.288318
 20
18506.826726
 30
0.0
1001
AVE_RENDER
1002
{
1070
     2
1000
Pref
1070
    30
1070
    20
1070
     0
1070
     0
1000

1070
    10
1070
     0
1070
    30
1040
1.0
1070
     1
1040
0.3
1040
0.7
1040
0.0
1040
10.0
1010
-1.0
1020
-1.0
1030
-1.0
1040
0.3
1070
    49
1002
}
  0
INSERT
  5
1B7D7
100
AcDbEntity
  8
ASHADE
 62
     3
100
AcDbBlockReference
  2
AVE_RENDER
 10
30142.288318
 20
18506.826726
 30
0.0
1001
AVE_RENDER
1002
{
1070
     0
1000
Full Opt
1070
     0
1070
     1
1070
     1
1070
     1
1070
     0
1070
     0
1070
     0
1070
     1
1070
     1
1040
0.0001
1040
0.0001
1002
}
  0
INSERT
  5
1B7D8
100
AcDbEntity
  8
ASHADE
 62
     4
100
AcDbBlockReference
  2
AVE_RENDER
 10
30142.288318
 20
18506.826726
 30
0.0
1001
AVE_RENDER
1002
{
1070
     0
1000
Quick Opt
1070
     0
1070
     1
1070
     1
1070
     1
1070
     0
1070
     0
1070
     1
1002
}
  0
TEXT
  5
1B7D9
100
AcDbEntity
  8
STP
100
AcDbText
 10
7084.332688
 20
9824.844641
 30
0.0
 40
30.0
  1
 
  7
ROMANS8
100
AcDbText
  0
TEXT
  5
1B7DA
100
AcDbEntity
  8
STP
100
AcDbText
 10
7084.332688
 20
9776.273213
 30
0.0
 40
30.0
  1
 
  7
ROMANS8
100
AcDbText
  0
TEXT
  5
1B7DB
100
AcDbEntity
  8
STP
100
AcDbText
 10
7084.332688
 20
9727.701784
 30
0.0
 40
30.0
  1
 
  7
ROMANS8
100
AcDbText
  0
TEXT
  5
1B7DC
100
AcDbEntity
  8
STP
100
AcDbText
 10
10394.332688
 20
11784.844641
 30
0.0
 40
30.0
  1
 
  7
ROMANS8
100
AcDbText
  0
TEXT
  5
1B7DD
100
AcDbEntity
  8
STP
100
AcDbText
 10
10394.332688
 20
11736.273213
 30
0.0
 40
30.0
  1
 
  7
ROMANS8
100
AcDbText
  0
TEXT
  5
1B7DE
100
AcDbEntity
  8
STP
100
AcDbText
 10
10394.332688
 20
11687.701784
 30
0.0
 40
30.0
  1
 
  7
ROMANS8
100
AcDbText
  0
TEXT
  5
1B7DF
100
AcDbEntity
  8
STP
100
AcDbText
 10
7093.443809
 20
14909.389261
 30
0.0
 40
30.0
  1
 
  7
ROMANS8
100
AcDbText
  0
TEXT
  5
1B7E0
100
AcDbEntity
  8
STP
100
AcDbText
 10
7093.443809
 20
14860.817833
 30
0.0
 40
30.0
  1
 
  7
ROMANS8
100
AcDbText
  0
TEXT
  5
1B7E1
100
AcDbEntity
  8
STP
100
AcDbText
 10
7093.443809
 20
14812.246404
 30
0.0
 40
30.0
  1
 
  7
ROMANS8
100
AcDbText
  0
TEXT
  5
1B7E2
100
AcDbEntity
  8
STP
100
AcDbText
 10
7838.332688
 20
10086.41607
 30
0.0
 40
15.0
  1

  7
ROMANS8
100
AcDbText
  0
TEXT
  5
1B7E3
100
AcDbEntity
  8
BEMASS
100
AcDbText
 10
178.049747
 20
8047.965904
 30
0.0
 40
30.0
  1

  7
ROMANS8
100
AcDbText
  0
TEXT
  5
1B7E4
100
AcDbEntity
  8
BEMASS
100
AcDbText
 10
20081.788318
 20
13283.826726
 30
0.0
 40
30.0
  1

  7
ROMANS8
100
AcDbText
  0
TEXT
  5
1B7E5
100
AcDbEntity
  8
BEMASS
100
AcDbText
 10
518.049747
 20
8047.965904
 30
0.0
 40
30.0
  1

  7
ROMANS8
100
AcDbText
  0
TEXT
  5
1B7E6
100
AcDbEntity
  8
BEMASS
100
AcDbText
 10
318.049747
 20
8047.965904
 30
0.0
 40
30.0
  1

  7
ROMANS8
100
AcDbText
  0
TEXT
  5
1B7E7
100
AcDbEntity
  8
STP
100
AcDbText
 10
14016.513633
 20
15538.931663
 30
0.0
 40
3.075
  1

  7
ROMANS8
100
AcDbText
  0
TEXT
  5
1B7E8
100
AcDbEntity
  8
STP
100
AcDbText
 10
14016.513633
 20
15534.940592
 30
0.0
 40
3.075
  1

  7
ROMANS8
100
AcDbText
  0
TEXT
  5
1B7E9
100
AcDbEntity
  8
STP
100
AcDbText
 10
14016.513633
 20
15530.91202
 30
0.0
 40
3.075
  1

  7
ROMANS8
100
AcDbText
  0
TEXT
  5
1B7EA
100
AcDbEntity
  8
STP
100
AcDbText
 10
14016.513633
 20
15526.908449
 30
0.0
 40
3.075
  1

  7
ROMANS8
100
AcDbText
  0
TEXT
  5
1B7EB
100
AcDbEntity
  8
STP
100
AcDbText
 10
14016.513633
 20
15522.917378
 30
0.0
 40
3.075
  1

  7
ROMANS8
100
AcDbText
  0
TEXT
  5
1B7EC
100
AcDbEntity
  8
STP
100
AcDbText
 10
12204.346146
 20
12842.890267
 30
0.0
 40
3.0
  1

  7
ROMANS8
100
AcDbText
  0
TEXT
  5
1B7ED
100
AcDbEntity
  8
STP
100
AcDbText
 10
12204.346146
 20
12837.033124
 30
0.0
 40
3.0
  1

  7
ROMANS8
100
AcDbText
  0
TEXT
  5
1B7EE
100
AcDbEntity
  8
STP
100
AcDbText
 10
14144.513633
 20
18388.931663
 30
0.0
 40
3.075
  1

  7
ROMANS8
100
AcDbText
  0
TEXT
  5
1B7EF
100
AcDbEntity
  8
STP
100
AcDbText
 10
14144.513633
 20
18384.940592
 30
0.0
 40
3.075
  1

  7
ROMANS8
100
AcDbText
  0
TEXT
  5
1B7F0
100
AcDbEntity
  8
STP
100
AcDbText
 10
14144.513633
 20
18380.91202
 30
0.0
 40
3.075
  1

  7
ROMANS8
100
AcDbText
  0
TEXT
  5
1B7F1
100
AcDbEntity
  8
STP
100
AcDbText
 10
14144.513633
 20
18376.908449
 30
0.0
 40
3.075
  1

  7
ROMANS8
100
AcDbText
  0
TEXT
  5
1B7F2
100
AcDbEntity
  8
STP
100
AcDbText
 10
14144.513633
 20
18372.917378
 30
0.0
 40
3.075
  1

  7
ROMANS8
100
AcDbText
  0
TEXT
  5
1B7F3
100
AcDbEntity
  8
STP
100
AcDbText
 10
12332.346146
 20
15692.890267
 30
0.0
 40
3.0
  1

  7
ROMANS8
100
AcDbText
  0
TEXT
  5
1B7F4
100
AcDbEntity
  8
STP
100
AcDbText
 10
12332.346146
 20
15687.033124
 30
0.0
 40
3.0
  1

  7
ROMANS8
100
AcDbText
  0
TEXT
  5
1B7F5
100
AcDbEntity
  8
STP
100
AcDbText
 10
15338.798515
 20
15049.267165
 30
0.0
 40
15.0
  1

  7
ROMANS8
100
AcDbText
  0
TEXT
  5
1B7F6
100
AcDbEntity
  8
STP
100
AcDbText
 10
15438.798515
 20
15049.267165
 30
0.0
 40
15.0
  1

  7
ROMANS8
100
AcDbText
  0
TEXT
  5
1B7F7
100
AcDbEntity
  8
STP
100
AcDbText
 10
15238.798515
 20
15049.267165
 30
0.0
 40
15.0
  1

  7
ROMANS8
100
AcDbText
  0
TEXT
  5
1B7F8
100
AcDbEntity
  8
STP
100
AcDbText
 10
15238.798515
 20
15019.267165
 30
0.0
 40
15.0
  1

  7
ROMANS8
100
AcDbText
  0
TEXT
  5
1B7F9
100
AcDbEntity
  8
STP
100
AcDbText
 10
15338.798515
 20
15019.267165
 30
0.0
 40
15.0
  1

  7
ROMANS8
100
AcDbText
  0
TEXT
  5
1B7FA
100
AcDbEntity
  8
STP
100
AcDbText
 10
15438.798515
 20
15019.267165
 30
0.0
 40
15.0
  1

  7
ROMANS8
100
AcDbText
  0
TEXT
  5
1B7FB
100
AcDbEntity
  8
STP
100
AcDbText
 10
14114.513633
 20
19533.931663
 30
0.0
 40
3.075
  1

  7
ROMANS8
100
AcDbText
  0
TEXT
  5
1B7FC
100
AcDbEntity
  8
STP
100
AcDbText
 10
14114.513633
 20
19529.940592
 30
0.0
 40
3.075
  1

  7
ROMANS8
100
AcDbText
  0
TEXT
  5
1B7FD
100
AcDbEntity
  8
STP
100
AcDbText
 10
14114.513633
 20
19525.91202
 30
0.0
 40
3.075
  1

  7
ROMANS8
100
AcDbText
  0
TEXT
  5
1B7FE
100
AcDbEntity
  8
STP
100
AcDbText
 10
14114.513633
 20
19521.908449
 30
0.0
 40
3.075
  1

  7
ROMANS8
100
AcDbText
  0
TEXT
  5
1B7FF
100
AcDbEntity
  8
STP
100
AcDbText
 10
14114.513633
 20
19517.917378
 30
0.0
 40
3.075
  1

  7
ROMANS8
100
AcDbText
  0
TEXT
  5
1B800
100
AcDbEntity
  8
STP
100
AcDbText
 10
12302.346146
 20
16837.890267
 30
0.0
 40
3.0
  1

  7
ROMANS8
100
AcDbText
  0
TEXT
  5
1B801
100
AcDbEntity
  8
STP
100
AcDbText
 10
12302.346146
 20
16832.033124
 30
0.0
 40
3.0
  1

  7
ROMANS8
100
AcDbText
  0
MTEXT
  5
1BA43
100
AcDbEntity
  8
BEMASS
100
AcDbMText
 10
3482.035346
 20
12354.150584
 30
0.0
 40
25.0
 41
0.0
 71
     7
 72
     5
  1

  7
ROMANS
  0
MTEXT
  5
1BA44
100
AcDbEntity
  8
BEMASS
100
AcDbMText
 10
3709.211041
 20
12354.150584
 30
0.0
 40
25.0
 41
0.0
 71
     9
 72
     5
  1

  7
ROMANS
  0
TEXT
  5
1BA45
100
AcDbEntity
  8
STP
100
AcDbText
 10
12282.541527
 20
16955.506042
 30
0.0
 40
15.0
  1

  7
ROMANS8
100
AcDbText
  0
TEXT
  5
1BA46
100
AcDbEntity
  8
STP
100
AcDbText
 10
12277.541527
 20
16931.220327
 30
0.0
 40
15.0
  1

  7
ROMANS8
100
AcDbText
  0
TEXT
  5
1BA47
100
AcDbEntity
  8
STP
100
AcDbText
 10
16525.655197
 20
15341.260428
 30
0.0
 40
15.0
  1

  7
ROMANS8
100
AcDbText
  0
TEXT
  5
1BA48
100
AcDbEntity
  8
STP
100
AcDbText
 10
12249.0852
 20
14052.710049
 30
0.0
 40
15.0
  1

  7
ROMANS8
100
AcDbText
  0
TEXT
  5
1BA49
100
AcDbEntity
  8
STP
100
AcDbText
 10
12254.0852
 20
14076.995763
 30
0.0
 40
15.0
  1

  7
ROMANS8
100
AcDbText
  0
TEXT
  5
1BA4A
100
AcDbEntity
  8
STP
100
AcDbText
 10
14294.155197
 20
15998.617571
 30
0.0
 40
3.0
  1

  7
ROMANS8
100
AcDbText
  0
TEXT
  5
1BA4B
100
AcDbEntity
  8
BEMASS
100
AcDbText
 10
10477.655197
 20
15024.331856
 30
0.0
 40
50.0
  1

  7
ROMANS8
100
AcDbText
  0
TEXT
  5
1BA4C
100
AcDbEntity
  8
BEMASS
100
AcDbText
 10
14014.155197
 20
13906.474714
 30
0.0
 40
3.0
  1

  7
ROMANS8
100
AcDbText
  0
TEXT
  5
1BA4D
100
AcDbEntity
  8
BEMASS
100
AcDbText
 10
16967.655197
 20
15533.546142
 30
0.0
 40
15.0
  1

  7
ROMANS8
100
AcDbText
  0
TEXT
  5
1BA4E
100
AcDbEntity
  8
STP
100
AcDbText
 10
9255.65174
 20
16690.317473
 30
0.0
 40
3.0
  1

  7
ROMANS8
100
AcDbText
  0
TEXT
  5
1BA4F
100
AcDbEntity
  8
STP
100
AcDbText
 10
19249.541527
 20
19717.506042
 30
0.0
 40
15.0
  1

  7
ROMANS8
100
AcDbText
  0
TEXT
  5
1BA50
100
AcDbEntity
  8
STP
100
AcDbText
 10
19244.541527
 20
19693.220327
 30
0.0
 40
15.0
  1

  7
ROMANS8
100
AcDbText
  0
TEXT
  5
1BA51
100
AcDbEntity
  8
STP
100
AcDbText
 10
23492.655197
 20
18103.260428
 30
0.0
 40
15.0
  1

  7
ROMANS8
100
AcDbText
  0
TEXT
  5
1BA52
100
AcDbEntity
  8
STP
100
AcDbText
 10
19216.0852
 20
16814.710049
 30
0.0
 40
15.0
  1

  7
ROMANS8
100
AcDbText
  0
TEXT
  5
1BA53
100
AcDbEntity
  8
STP
100
AcDbText
 10
19221.0852
 20
16838.995763
 30
0.0
 40
15.0
  1

  7
ROMANS8
100
AcDbText
  0
TEXT
  5
1BA54
100
AcDbEntity
  8
STP
100
AcDbText
 10
21261.155197
 20
18760.617571
 30
0.0
 40
3.0
  1

  7
ROMANS8
100
AcDbText
  0
TEXT
  5
1BA55
100
AcDbEntity
  8
STP
100
AcDbText
 10
29958.655197
 20
16764.831856
 30
0.0
 40
15.0
  1

  7
ROMANS8
100
AcDbText
  0
TEXT
  5
1BA56
100
AcDbEntity
  8
STP
100
AcDbText
 10
29958.655197
 20
19614.831856
 30
0.0
 40
15.0
  1

  7
ROMANS8
100
AcDbText
  0
TEXT
  5
1BA57
100
AcDbEntity
  8
STP
100
AcDbText
 10
34978.655197
 20
23287.331856
 30
0.0
 40
15.0
  1

  7
ROMANS8
100
AcDbText
  0
TEXT
  5
1BA58
100
AcDbEntity
  8
STP
100
AcDbText
 10
34704.155197
 20
23287.331856
 30
0.0
 40
15.0
  1

  7
ROMANS8
100
AcDbText
  0
TEXT
  5
1BA59
100
AcDbEntity
  8
STP
100
AcDbText
 10
25671.541527
 20
19702.006042
 30
0.0
 40
15.0
  1

  7
ROMANS8
100
AcDbText
  0
TEXT
  5
1BA5A
100
AcDbEntity
  8
STP
100
AcDbText
 10
25666.541527
 20
19677.720327
 30
0.0
 40
15.0
  1

  7
ROMANS8
100
AcDbText
  0
TEXT
  5
1BA5B
100
AcDbEntity
  8
STP
100
AcDbText
 10
29914.655197
 20
18087.760428
 30
0.0
 40
15.0
  1

  7
ROMANS8
100
AcDbText
  0
TEXT
  5
1BA5C
100
AcDbEntity
  8
STP
100
AcDbText
 10
25638.0852
 20
16799.210049
 30
0.0
 40
15.0
  1

  7
ROMANS8
100
AcDbText
  0
TEXT
  5
1BA5D
100
AcDbEntity
  8
STP
100
AcDbText
 10
25643.0852
 20
16823.495763
 30
0.0
 40
15.0
  1

  7
ROMANS8
100
AcDbText
  0
TEXT
  5
1BA5E
100
AcDbEntity
  8
STP
100
AcDbText
 10
27683.155197
 20
18745.117571
 30
0.0
 40
3.0
  1

  7
ROMANS8
100
AcDbText
  0
TEXT
  5
1BA5F
100
AcDbEntity
  8
BEMASS
100
AcDbText
 10
23866.655197
 20
17770.831856
 30
0.0
 40
50.0
  1

  7
ROMANS8
100
AcDbText
  0
TEXT
  5
1BA60
100
AcDbEntity
  8
BEMASS
100
AcDbText
 10
27403.155197
 20
16652.974714
 30
0.0
 40
3.0
  1

  7
ROMANS8
100
AcDbText
  0
TEXT
  5
1BA61
100
AcDbEntity
  8
BEMASS
100
AcDbText
 10
30356.655197
 20
18280.046142
 30
0.0
 40
15.0
  1

  7
ROMANS8
100
AcDbText
  0
TEXT
  5
1BA62
100
AcDbEntity
  8
STP
100
AcDbText
 10
22644.65174
 20
19436.817473
 30
0.0
 40
3.0
  1

  7
ROMANS8
100
AcDbText
  0
TEXT
  5
1BA63
100
AcDbEntity
  8
STP
100
AcDbText
 10
19457.041527
 20
18608.006042
 30
0.0
 40
15.0
  1

  7
ROMANS8
100
AcDbText
  0
TEXT
  5
1BA64
100
AcDbEntity
  8
STP
100
AcDbText
 10
19452.041527
 20
18583.720327
 30
0.0
 40
15.0
  1

  7
ROMANS8
100
AcDbText
  0
TEXT
  5
1BA65
100
AcDbEntity
  8
STP
100
AcDbText
 10
23700.155197
 20
16993.760428
 30
0.0
 40
15.0
  1

  7
ROMANS8
100
AcDbText
  0
TEXT
  5
1BA66
100
AcDbEntity
  8
STP
100
AcDbText
 10
19423.5852
 20
15705.210049
 30
0.0
 40
15.0
  1

  7
ROMANS8
100
AcDbText
  0
TEXT
  5
1BA67
100
AcDbEntity
  8
STP
100
AcDbText
 10
19428.5852
 20
15729.495763
 30
0.0
 40
15.0
  1

  7
ROMANS8
100
AcDbText
  0
TEXT
  5
1BA68
100
AcDbEntity
  8
BEMASS
100
AcDbText
 10
15832.76693
 20
23673.344588
 30
0.0
 40
20.0
  1

  7
ROMANS8
100
AcDbText
  0
TEXT
  5
1BA69
100
AcDbEntity
  8
STP
100
AcDbText
 10
19622.541527
 20
23148.006042
 30
0.0
 40
15.0
  1

  7
ROMANS8
100
AcDbText
  0
TEXT
  5
1BA6A
100
AcDbEntity
  8
STP
100
AcDbText
 10
19617.541527
 20
23123.720327
 30
0.0
 40
15.0
  1

  7
ROMANS8
100
AcDbText
  0
TEXT
  5
1BA6B
100
AcDbEntity
  8
STP
100
AcDbText
 10
23865.655197
 20
21533.760428
 30
0.0
 40
15.0
  1

  7
ROMANS8
100
AcDbText
  0
TEXT
  5
1BA6C
100
AcDbEntity
  8
STP
100
AcDbText
 10
19589.0852
 20
20245.210049
 30
0.0
 40
15.0
  1

  7
ROMANS8
100
AcDbText
  0
TEXT
  5
1BA6D
100
AcDbEntity
  8
STP
100
AcDbText
 10
19594.0852
 20
20269.495763
 30
0.0
 40
15.0
  1

  7
ROMANS8
100
AcDbText
  0
TEXT
  5
1BA6E
100
AcDbEntity
  8
STP
100
AcDbText
 10
23700.541527
 20
23151.006042
 30
0.0
 40
15.0
  1

  7
ROMANS8
100
AcDbText
  0
TEXT
  5
1BA6F
100
AcDbEntity
  8
STP
100
AcDbText
 10
23695.541527
 20
23126.720327
 30
0.0
 40
15.0
  1

  7
ROMANS8
100
AcDbText
  0
TEXT
  5
1BA70
100
AcDbEntity
  8
STP
100
AcDbText
 10
27943.655197
 20
21536.760428
 30
0.0
 40
15.0
  1

  7
ROMANS8
100
AcDbText
  0
TEXT
  5
1BA71
100
AcDbEntity
  8
STP
100
AcDbText
 10
23667.0852
 20
20248.210049
 30
0.0
 40
15.0
  1

  7
ROMANS8
100
AcDbText
  0
TEXT
  5
1BA72
100
AcDbEntity
  8
STP
100
AcDbText
 10
23672.0852
 20
20272.495763
 30
0.0
 40
15.0
  1

  7
ROMANS8
100
AcDbText
  0
TEXT
  5
1BA73
100
AcDbEntity
  8
STP
100
AcDbText
 10
25712.155197
 20
22194.117571
 30
0.0
 40
3.0
  1

  7
ROMANS8
100
AcDbText
  0
TEXT
  5
1BA74
100
AcDbEntity
  8
STP
100
AcDbText
 10
27758.541527
 20
23618.506042
 30
0.0
 40
15.0
  1

  7
ROMANS8
100
AcDbText
  0
TEXT
  5
1BA75
100
AcDbEntity
  8
STP
100
AcDbText
 10
27753.541527
 20
23594.220327
 30
0.0
 40
15.0
  1

  7
ROMANS8
100
AcDbText
  0
TEXT
  5
1BA76
100
AcDbEntity
  8
STP
100
AcDbText
 10
32001.655197
 20
22004.260428
 30
0.0
 40
15.0
  1

  7
ROMANS8
100
AcDbText
  0
TEXT
  5
1BA77
100
AcDbEntity
  8
STP
100
AcDbText
 10
27725.0852
 20
20715.710049
 30
0.0
 40
15.0
  1

  7
ROMANS8
100
AcDbText
  0
TEXT
  5
1BA78
100
AcDbEntity
  8
STP
100
AcDbText
 10
27730.0852
 20
20739.995763
 30
0.0
 40
15.0
  1

  7
ROMANS8
100
AcDbText
  0
TEXT
  5
1BA79
100
AcDbEntity
  8
STP
100
AcDbText
 10
29770.155197
 20
22661.617571
 30
0.0
 40
3.0
  1

  7
ROMANS8
100
AcDbText
  0
TEXT
  5
1BA7A
100
AcDbEntity
  8
BEMASS
100
AcDbText
 10
25953.655197
 20
21687.331856
 30
0.0
 40
50.0
  1

  7
ROMANS8
100
AcDbText
  0
TEXT
  5
1BA7B
100
AcDbEntity
  8
BEMASS
100
AcDbText
 10
29490.155197
 20
20569.474714
 30
0.0
 40
3.0
  1

  7
ROMANS8
100
AcDbText
  0
TEXT
  5
1BA7C
100
AcDbEntity
  8
BEMASS
100
AcDbText
 10
32443.655197
 20
22196.546142
 30
0.0
 40
15.0
  1

  7
ROMANS8
100
AcDbText
  0
TEXT
  5
1BA7D
100
AcDbEntity
  8
BEMASS
100
AcDbText
 10
16205.76693
 20
22873.344588
 30
0.0
 40
20.0
  1

  7
ROMANS8
100
AcDbText
  0
INSERT
  5
1BA7E
100
AcDbEntity
  8
ASHADE
 62
     1
100
AcDbBlockReference
  2
AVE_RENDER
 10
20939.655197
 20
23612.831856
 30
0.0
1001
AVE_RENDER
1002
{
1070
     2
1000
Pref
1070
    30
1070
    20
1070
     0
1070
     0
1000

1070
    10
1070
     0
1070
    30
1040
1.0
1070
     1
1040
0.3
1040
0.7
1040
0.0
1040
10.0
1010
-1.0
1020
-1.0
1030
-1.0
1040
0.3
1070
    49
1002
}
  0
INSERT
  5
1BA7F
100
AcDbEntity
  8
ASHADE
 62
     3
100
AcDbBlockReference
  2
AVE_RENDER
 10
20939.655197
 20
23612.831856
 30
0.0
1001
AVE_RENDER
1002
{
1070
     0
1000
Full Opt
1070
     0
1070
     1
1070
     1
1070
     1
1070
     0
1070
     0
1070
     0
1070
     1
1070
     1
1040
0.0001
1040
0.0001
1002
}
  0
INSERT
  5
1BA80
100
AcDbEntity
  8
ASHADE
 62
     4
100
AcDbBlockReference
  2
AVE_RENDER
 10
20939.655197
 20
23612.831856
 30
0.0
1001
AVE_RENDER
1002
{
1070
     0
1000
Quick Opt
1070
     0
1070
     1
1070
     1
1070
     1
1070
     0
1070
     0
1070
     1
1002
}
  0
TEXT
  5
1BA81
100
AcDbEntity
  8
STP
100
AcDbText
 10
15267.224127
 20
10226.002439
 30
0.0
 40
15.0
  1

  7
ROMANS8
100
AcDbText
  0
TEXT
  5
1BA82
100
AcDbEntity
  8
STP
100
AcDbText
 10
15262.224127
 20
10201.716725
 30
0.0
 40
15.0
  1

  7
ROMANS8
100
AcDbText
  0
TEXT
  5
1BA83
100
AcDbEntity
  8
STP
100
AcDbText
 10
19510.337797
 20
8611.756826
 30
0.0
 40
15.0
  1

  7
ROMANS8
100
AcDbText
  0
TEXT
  5
1BA84
100
AcDbEntity
  8
STP
100
AcDbText
 10
15233.767801
 20
7323.206447
 30
0.0
 40
15.0
  1

  7
ROMANS8
100
AcDbText
  0
TEXT
  5
1BA85
100
AcDbEntity
  8
STP
100
AcDbText
 10
15238.767801
 20
7347.492161
 30
0.0
 40
15.0
  1

  7
ROMANS8
100
AcDbText
  0
TEXT
  5
1BA86
100
AcDbEntity
  8
STP
100
AcDbText
 10
17278.837797
 20
9269.113969
 30
0.0
 40
3.0
  1

  7
ROMANS8
100
AcDbText
  0
TEXT
  5
1BA87
100
AcDbEntity
  8
STP
100
AcDbText
 10
25976.337797
 20
7273.328254
 30
0.0
 40
15.0
  1

  7
ROMANS8
100
AcDbText
  0
TEXT
  5
1BA88
100
AcDbEntity
  8
STP
100
AcDbText
 10
25976.337797
 20
10123.328254
 30
0.0
 40
15.0
  1

  7
ROMANS8
100
AcDbText
  0
TEXT
  5
1BA89
100
AcDbEntity
  8
STP
100
AcDbText
 10
30996.337797
 20
13795.828254
 30
0.0
 40
15.0
  1

  7
ROMANS8
100
AcDbText
  0
TEXT
  5
1BA8A
100
AcDbEntity
  8
STP
100
AcDbText
 10
30721.837797
 20
13795.828254
 30
0.0
 40
15.0
  1

  7
ROMANS8
100
AcDbText
  0
TEXT
  5
1BA8B
100
AcDbEntity
  8
STP
100
AcDbText
 10
17414.150297
 20
7364.703254
 30
0.0
 40
15.375
  1

  7
ROMANS8
100
AcDbText
  0
TEXT
  5
1BA8C
100
AcDbEntity
  8
STP
100
AcDbText
 10
17414.150297
 20
7344.747897
 30
0.0
 40
15.375
  1

  7
ROMANS8
100
AcDbText
  0
TEXT
  5
1BA8D
100
AcDbEntity
  8
STP
100
AcDbText
 10
17414.150297
 20
7324.60504
 30
0.0
 40
15.375
  1

  7
ROMANS8
100
AcDbText
  0
TEXT
  5
1BA8E
100
AcDbEntity
  8
STP
100
AcDbText
 10
17414.150297
 20
7304.587183
 30
0.0
 40
15.375
  1

  7
ROMANS8
100
AcDbText
  0
TEXT
  5
1BA8F
100
AcDbEntity
  8
STP
100
AcDbText
 10
17414.150297
 20
7284.631826
 30
0.0
 40
15.375
  1

  7
ROMANS8
100
AcDbText
  0
TEXT
  5
1BA90
100
AcDbEntity
  8
STP
100
AcDbText
 10
21689.224127
 20
10210.502439
 30
0.0
 40
15.0
  1

  7
ROMANS8
100
AcDbText
  0
TEXT
  5
1BA91
100
AcDbEntity
  8
STP
100
AcDbText
 10
21684.224127
 20
10186.216725
 30
0.0
 40
15.0
  1

  7
ROMANS8
100
AcDbText
  0
TEXT
  5
1BA92
100
AcDbEntity
  8
STP
100
AcDbText
 10
25932.337797
 20
8596.256826
 30
0.0
 40
15.0
  1

  7
ROMANS8
100
AcDbText
  0
TEXT
  5
1BA93
100
AcDbEntity
  8
STP
100
AcDbText
 10
21655.767801
 20
7307.706447
 30
0.0
 40
15.0
  1

  7
ROMANS8
100
AcDbText
  0
TEXT
  5
1BA94
100
AcDbEntity
  8
STP
100
AcDbText
 10
21660.767801
 20
7331.992161
 30
0.0
 40
15.0
  1

  7
ROMANS8
100
AcDbText
  0
TEXT
  5
1BA95
100
AcDbEntity
  8
STP
100
AcDbText
 10
23700.837797
 20
9253.613969
 30
0.0
 40
3.0
  1

  7
ROMANS8
100
AcDbText
  0
TEXT
  5
1BA96
100
AcDbEntity
  8
BEMASS
100
AcDbText
 10
19884.337797
 20
8279.328254
 30
0.0
 40
50.0
  1

  7
ROMANS8
100
AcDbText
  0
TEXT
  5
1BA97
100
AcDbEntity
  8
BEMASS
100
AcDbText
 10
23420.837797
 20
7161.471111
 30
0.0
 40
3.0
  1

  7
ROMANS8
100
AcDbText
  0
TEXT
  5
1BA98
100
AcDbEntity
  8
BEMASS
100
AcDbText
 10
26374.337797
 20
8788.54254
 30
0.0
 40
15.0
  1

  7
ROMANS8
100
AcDbText
  0
TEXT
  5
1BA99
100
AcDbEntity
  8
STP
100
AcDbText
 10
18662.334341
 20
9945.313871
 30
0.0
 40
3.0
  1

  7
ROMANS8
100
AcDbText
  0
TEXT
  5
1BA9A
100
AcDbEntity
  8
STP
100
AcDbText
 10
18374.88936
 20
10237.662554
 30
0.0
 40
15.0
  1

  7
ROMANS8
100
AcDbText
  0
TEXT
  5
1BA9B
100
AcDbEntity
  8
STP
100
AcDbText
 10
18369.88936
 20
10213.37684
 30
0.0
 40
15.0
  1

  7
ROMANS8
100
AcDbText
  0
TEXT
  5
1BA9C
100
AcDbEntity
  8
STP
100
AcDbText
 10
22618.00303
 20
8623.41694
 30
0.0
 40
15.0
  1

  7
ROMANS8
100
AcDbText
  0
TEXT
  5
1BA9D
100
AcDbEntity
  8
STP
100
AcDbText
 10
18341.433034
 20
7334.866561
 30
0.0
 40
15.0
  1

  7
ROMANS8
100
AcDbText
  0
TEXT
  5
1BA9E
100
AcDbEntity
  8
STP
100
AcDbText
 10
18346.433034
 20
7359.152276
 30
0.0
 40
15.0
  1

  7
ROMANS8
100
AcDbText
  0
TEXT
  5
1BA9F
100
AcDbEntity
  8
STP
100
AcDbText
 10
20386.50303
 20
9280.774083
 30
0.0
 40
3.0
  1

  7
ROMANS8
100
AcDbText
  0
TEXT
  5
1BAA0
100
AcDbEntity
  8
STP
100
AcDbText
 10
29084.00303
 20
7284.988369
 30
0.0
 40
15.0
  1

  7
ROMANS8
100
AcDbText
  0
TEXT
  5
1BAA1
100
AcDbEntity
  8
STP
100
AcDbText
 10
29084.00303
 20
10134.988369
 30
0.0
 40
15.0
  1

  7
ROMANS8
100
AcDbText
  0
TEXT
  5
1BAA2
100
AcDbEntity
  8
STP
100
AcDbText
 10
34104.00303
 20
13807.488369
 30
0.0
 40
15.0
  1

  7
ROMANS8
100
AcDbText
  0
TEXT
  5
1BAA3
100
AcDbEntity
  8
STP
100
AcDbText
 10
33829.50303
 20
13807.488369
 30
0.0
 40
15.0
  1

  7
ROMANS8
100
AcDbText
  0
TEXT
  5
1BAA4
100
AcDbEntity
  8
STP
100
AcDbText
 10
20521.81553
 20
7376.363369
 30
0.0
 40
15.375
  1

  7
ROMANS8
100
AcDbText
  0
TEXT
  5
1BAA5
100
AcDbEntity
  8
STP
100
AcDbText
 10
20521.81553
 20
7356.408012
 30
0.0
 40
15.375
  1

  7
ROMANS8
100
AcDbText
  0
TEXT
  5
1BAA6
100
AcDbEntity
  8
STP
100
AcDbText
 10
20521.81553
 20
7336.265155
 30
0.0
 40
15.375
  1

  7
ROMANS8
100
AcDbText
  0
TEXT
  5
1BAA7
100
AcDbEntity
  8
STP
100
AcDbText
 10
20521.81553
 20
7316.247297
 30
0.0
 40
15.375
  1

  7
ROMANS8
100
AcDbText
  0
TEXT
  5
1BAA8
100
AcDbEntity
  8
STP
100
AcDbText
 10
20521.81553
 20
7296.29194
 30
0.0
 40
15.375
  1

  7
ROMANS8
100
AcDbText
  0
TEXT
  5
1BAA9
100
AcDbEntity
  8
STP
100
AcDbText
 10
24796.88936
 20
10222.162554
 30
0.0
 40
15.0
  1

  7
ROMANS8
100
AcDbText
  0
TEXT
  5
1BAAA
100
AcDbEntity
  8
STP
100
AcDbText
 10
24791.88936
 20
10197.87684
 30
0.0
 40
15.0
  1

  7
ROMANS8
100
AcDbText
  0
TEXT
  5
1BAAB
100
AcDbEntity
  8
STP
100
AcDbText
 10
29040.00303
 20
8607.91694
 30
0.0
 40
15.0
  1

  7
ROMANS8
100
AcDbText
  0
TEXT
  5
1BAAC
100
AcDbEntity
  8
STP
100
AcDbText
 10
24763.433034
 20
7319.366561
 30
0.0
 40
15.0
  1

  7
ROMANS8
100
AcDbText
  0
TEXT
  5
1BAAD
100
AcDbEntity
  8
STP
100
AcDbText
 10
24768.433034
 20
7343.652276
 30
0.0
 40
15.0
  1

  7
ROMANS8
100
AcDbText
  0
TEXT
  5
1BAAE
100
AcDbEntity
  8
STP
100
AcDbText
 10
26808.50303
 20
9265.274083
 30
0.0
 40
3.0
  1

  7
ROMANS8
100
AcDbText
  0
TEXT
  5
1BAAF
100
AcDbEntity
  8
BEMASS
100
AcDbText
 10
22992.00303
 20
8290.988369
 30
0.0
 40
50.0
  1

  7
ROMANS8
100
AcDbText
  0
TEXT
  5
1BAB0
100
AcDbEntity
  8
BEMASS
100
AcDbText
 10
26528.50303
 20
7173.131226
 30
0.0
 40
3.0
  1

  7
ROMANS8
100
AcDbText
  0
TEXT
  5
1BAB1
100
AcDbEntity
  8
BEMASS
100
AcDbText
 10
29482.00303
 20
8800.202655
 30
0.0
 40
15.0
  1

  7
ROMANS8
100
AcDbText
  0
TEXT
  5
1BAB2
100
AcDbEntity
  8
STP
100
AcDbText
 10
21769.999574
 20
9956.973986
 30
0.0
 40
3.0
  1

  7
ROMANS8
100
AcDbText
  0
TEXT
  5
1D686
100
AcDbEntity
  8
STP
100
AcDbText
 10
6549.309301
 20
3697.486343
 30
0.0
 40
15.0
  1

  7
ROMANS8
100
AcDbText
  0
TEXT
  5
1D687
100
AcDbEntity
  8
STP
100
AcDbText
 10
6544.309301
 20
3673.200628
 30
0.0
 40
15.0
  1

  7
ROMANS8
100
AcDbText
  0
TEXT
  5
1D688
100
AcDbEntity
  8
STP
100
AcDbText
 10
10792.42297
 20
2083.240729
 30
0.0
 40
15.0
  1

  7
ROMANS8
100
AcDbText
  0
TEXT
  5
1D689
100
AcDbEntity
  8
STP
100
AcDbText
 10
6515.852974
 20
794.69035
 30
0.0
 40
15.0
  1

  7
ROMANS8
100
AcDbText
  0
TEXT
  5
1D68A
100
AcDbEntity
  8
STP
100
AcDbText
 10
6520.852974
 20
818.976065
 30
0.0
 40
15.0
  1

  7
ROMANS8
100
AcDbText
  0
TEXT
  5
1D68B
100
AcDbEntity
  8
STP
100
AcDbText
 10
8560.92297
 20
2740.597872
 30
0.0
 40
3.0
  1

  7
ROMANS8
100
AcDbText
  0
TEXT
  5
1D68C
100
AcDbEntity
  8
STP
100
AcDbText
 10
10607.309301
 20
4164.986343
 30
0.0
 40
15.0
  1

  7
ROMANS8
100
AcDbText
  0
TEXT
  5
1D68D
100
AcDbEntity
  8
STP
100
AcDbText
 10
10602.309301
 20
4140.700628
 30
0.0
 40
15.0
  1

  7
ROMANS8
100
AcDbText
  0
TEXT
  5
1D68E
100
AcDbEntity
  8
STP
100
AcDbText
 10
14850.42297
 20
2550.740729
 30
0.0
 40
15.0
  1

  7
ROMANS8
100
AcDbText
  0
TEXT
  5
1D68F
100
AcDbEntity
  8
STP
100
AcDbText
 10
10573.852974
 20
1262.19035
 30
0.0
 40
15.0
  1

  7
ROMANS8
100
AcDbText
  0
TEXT
  5
1D690
100
AcDbEntity
  8
STP
100
AcDbText
 10
10578.852974
 20
1286.476065
 30
0.0
 40
15.0
  1

  7
ROMANS8
100
AcDbText
  0
TEXT
  5
1D691
100
AcDbEntity
  8
STP
100
AcDbText
 10
12618.92297
 20
3208.097872
 30
0.0
 40
3.0
  1

  7
ROMANS8
100
AcDbText
  0
TEXT
  5
1D692
100
AcDbEntity
  8
BEMASS
100
AcDbText
 10
8802.42297
 20
2233.812158
 30
0.0
 40
50.0
  1

  7
ROMANS8
100
AcDbText
  0
TEXT
  5
1D693
100
AcDbEntity
  8
BEMASS
100
AcDbText
 10
12338.92297
 20
1115.955015
 30
0.0
 40
3.0
  1

  7
ROMANS8
100
AcDbText
  0
TEXT
  5
1D694
100
AcDbEntity
  8
BEMASS
100
AcDbText
 10
15292.42297
 20
2743.026443
 30
0.0
 40
15.0
  1

  7
ROMANS8
100
AcDbText
  0
TEXT
  5
1D695
100
AcDbEntity
  8
STP
100
AcDbText
 10
10957.809301
 20
5072.986343
 30
0.0
 40
15.0
  1

  7
ROMANS8
100
AcDbText
  0
TEXT
  5
1D696
100
AcDbEntity
  8
STP
100
AcDbText
 10
10952.809301
 20
5048.700628
 30
0.0
 40
15.0
  1

  7
ROMANS8
100
AcDbText
  0
TEXT
  5
1D697
100
AcDbEntity
  8
STP
100
AcDbText
 10
15200.92297
 20
3458.740729
 30
0.0
 40
15.0
  1

  7
ROMANS8
100
AcDbText
  0
TEXT
  5
1D698
100
AcDbEntity
  8
STP
100
AcDbText
 10
10924.352974
 20
2170.19035
 30
0.0
 40
15.0
  1

  7
ROMANS8
100
AcDbText
  0
TEXT
  5
1D699
100
AcDbEntity
  8
STP
100
AcDbText
 10
10929.352974
 20
2194.476065
 30
0.0
 40
15.0
  1

  7
ROMANS8
100
AcDbText
  0
TEXT
  5
1D69A
100
AcDbEntity
  8
STP
100
AcDbText
 10
12969.42297
 20
4116.097872
 30
0.0
 40
3.0
  1

  7
ROMANS8
100
AcDbText
  0
TEXT
  5
1D69B
100
AcDbEntity
  8
BEMASS
100
AcDbText
 10
9152.92297
 20
3141.812158
 30
0.0
 40
50.0
  1

  7
ROMANS8
100
AcDbText
  0
TEXT
  5
1D69C
100
AcDbEntity
  8
BEMASS
100
AcDbText
 10
12689.42297
 20
2023.955015
 30
0.0
 40
3.0
  1

  7
ROMANS8
100
AcDbText
  0
TEXT
  5
1D69D
100
AcDbEntity
  8
BEMASS
100
AcDbText
 10
15642.92297
 20
3651.026443
 30
0.0
 40
15.0
  1

  7
ROMANS8
100
AcDbText
  0
TEXT
  5
1D69E
100
AcDbEntity
  8
STP
100
AcDbText
 10
7930.919514
 20
4807.797775
 30
0.0
 40
3.0
  1

  7
ROMANS8
100
AcDbText
  0
TEXT
  5
1D69F
100
AcDbEntity
  8
STP
100
AcDbText
 10
6545.852974
 20
797.19035
 30
0.0
 40
15.0
  1

  7
ROMANS8
100
AcDbText
  0
MTEXT
  5
1D6A0
100
AcDbEntity
  8
TT
100
AcDbMText
 10
8507.683277
 20
1095.286828
 30
0.0
 40
25.0
 41
0.0
 71
     7
 72
     5
  1

  7
ROMANS
  0
MTEXT
  5
1D6A1
100
AcDbEntity
  8
BEMASS
100
AcDbMText
 10
5061.03894
 20
1223.710904
 30
0.0
 40
25.0
 41
0.0
 71
     9
 72
     5
  1
 
  7
ROMANS
  0
MTEXT
  5
1D6A2
100
AcDbEntity
  8
BEMASS
100
AcDbMText
 10
4888.66429
 20
1178.885608
 30
0.0
 40
25.0
 41
0.0
 71
     9
 72
     5
  1

  7
ROMANS
  0
MTEXT
  5
1D6A3
100
AcDbEntity
  8
BEMASS
100
AcDbMText
 10
5463.708822
 20
1544.384924
 30
0.0
 40
25.0
 41
0.0
 71
     7
 72
     5
  1

  7
ROMANS
  0
MTEXT
  5
1D6A4
100
AcDbEntity
  8
BEMASS
100
AcDbMText
 10
3518.36305
 20
1547.112528
 30
0.0
 40
25.0
 41
0.0
 71
     9
 72
     5
  1

  7
ROMANS
  0
MTEXT
  5
1D6A5
100
AcDbEntity
  8
BEMASS
100
AcDbMText
 10
8085.916189
 20
1106.750494
 30
0.0
 40
6.0
 41
0.435431
 71
     1
 72
     5
  1

  7
ILKA2
  0
MTEXT
  5
1D6A6
100
AcDbEntity
  8
BEMASS
100
AcDbMText
 10
8029.828892
 20
1029.59975
 30
0.0
 40
5.0
 41
0.0
 71
     7
 72
     5
  1

  7
ILKA2
  0
INSERT
  5
1D6A7
100
AcDbEntity
  8
ASHADE
 62
     1
100
AcDbBlockReference
  2
AVE_RENDER
 10
7668.386687
 20
624.749658
 30
0.0
1001
AVE_RENDER
1002
{
1070
     6
1000
Pref
1070
    30
1070
    20
1070
     1
1070
     0
1000

1070
    10
1070
     1
1070
    30
1040
1.0
1070
     1
1040
0.3
1040
0.7
1040
0.0
1040
10.0
1010
-1.0
1020
-1.0
1030
-1.0
1040
0.3
1070
    49
1070
     0
1070
     0
1010
1.0
1020
1.0
1030
1.0
1040
45.0
1070
     1
1070
     0
1000
WCS
1040
0.0
1002
}
  0
INSERT
  5
1D6A8
100
AcDbEntity
  8
ASHADE
 62
     3
100
AcDbBlockReference
  2
AVE_RENDER
 10
7668.386687
 20
624.749658
 30
0.0
1001
AVE_RENDER
1002
{
1070
     0
1000
Full Opt
1070
     0
1070
     1
1070
     1
1070
     1
1070
     0
1070
     0
1070
     0
1070
     1
1070
     1
1040
0.0001
1040
0.0001
1002
}
  0
INSERT
  5
1D6A9
100
AcDbEntity
  8
ASHADE
 62
     4
100
AcDbBlockReference
  2
AVE_RENDER
 10
7668.386687
 20
624.749658
 30
0.0
1001
AVE_RENDER
1002
{
1070
     0
1000
Quick Opt
1070
     0
1070
     1
1070
     1
1070
     1
1070
     0
1070
     0
1070
     1
1002
}
  0
INSERT
  5
1D6AA
100
AcDbEntity
  8
ASHADE
 62
     5
100
AcDbBlockReference
  2
AVE_RENDER
 10
7668.386687
 20
624.749658
 30
0.0
1001
AVE_RENDER
1002
{
1070
     1
1000
Scanl Opt
1070
     2
1070
     0
1070
     2
1040
2.0
1040
4.0
1070
     0
1070
     1
1070
     0
1040
0.03
1002
}
  0
INSERT
  5
1D6AB
100
AcDbEntity
  8
ASHADE
 62
     6
100
AcDbBlockReference
  2
AVE_RENDER
 10
7668.386687
 20
624.749658
 30
0.0
1001
AVE_RENDER
1002
{
1070
     2
1000
Raytr Opt
1070
     2
1070
     0
1070
     2
1040
2.0
1040
4.0
1070
     0
1070
     1
1070
     1
1040
0.03
1070
     3
1040
0.03
1002
}
  0
INSERT
  5
1D6AC
100
AcDbEntity
  8
ASHADE
 62
     7
100
AcDbBlockReference
  2
AVE_RENDER
 10
7668.386687
 20
624.749658
 30
0.0
1001
AVE_RENDER
1002
{
1070
     0
1000
RFile Opt
1070
     5
1070
   640
1070
   480
1070
 10000
1070
     3
1070
    32
1070
    24
1070
     0
1070
     0
1070
     0
1070
     1
1070
     0
1070
     0
1070
     0
1002
}
  0
INSERT
  5
1D6AD
100
AcDbEntity
  8
ASHADE
 62
     8
100
AcDbBlockReference
  2
AVE_RENDER
 10
7668.386687
 20
624.749658
 30
0.0
1001
AVE_RENDER
1002
{
1070
     0
1000
Fog Opt
1070
     0
1070
     0
1040
0.0
1040
1.0
1040
0.0
1040
1.0
1010
0.5
1020
0.5
1030
0.5
1002
}
  0
INSERT
  5
1D6AE
100
AcDbEntity
  8
ASHADE
 62
     9
100
AcDbBlockReference
  2
AVE_RENDER
 10
7668.386687
 20
624.749658
 30
0.0
1001
AVE_RENDER
1002
{
1070
     0
1000
BG Opt
1070
     0
1070
     1
1010
0.0
1020
0.0
1030
0.0
1010
1.0
1020
0.0
1030
0.0
1010
0.0
1020
1.0
1030
0.0
1010
0.0
1020
0.0
1030
1.0
1040
0.5
1040
0.33
1040
0.0
1000

1070
     1
1000

1070
     1
1070
     1
1040
1.0
1040
1.0
1040
0.0
1040
0.0
1070
     0
1002
}
  0
INSERT
  5
1D6AF
100
AcDbEntity
  8
ASHADE
 62
     1
100
AcDbBlockReference
  2
AVE_GLOBAL
 10
7668.386687
 20
624.749658
 30
0.0
1001
AVE_MATERIAL
1002
{
1000
*GLOBAL*
1000
1
1000
Globales Material.
1002
{
1002
}
1002
{
1070
    63
1002
{
1002
{
1010
-1.0
1020
-1.0
1030
-1.0
1002
}
1040
0.1
1000

1040
0.0
1002
{
1002
}
1040
0.0
1002
{
1002
}
1040
0.0
1002
}
1002
{
1002
{
1010
-1.0
1020
-1.0
1030
-1.0
1002
}
1040
0.7
1000

1040
0.0
1002
{
1002
}
1040
0.0
1002
{
1002
}
1040
0.0
1002
}
1002
{
1002
{
1010
-1.0
1020
-1.0
1030
-1.0
1002
}
1040
0.2
1000

1040
0.0
1002
{
1002
}
1040
0.0
1002
{
1002
}
1040
0.0
1002
}
1002
{
1070
     0
1002
{
1070
     1
1002
{
1040
1.0
1040
1.0
1000

1040
0.0
1002
{
1002
}
1040
0.0
1002
{
1002
}
1040
0.0
1002
}
1002
}
1040
1.0
1040
0.0
1040
0.0
1002
}
1002
{
1040
1.0
1040
1.0
1000

1040
0.0
1002
{
1002
}
1040
0.0
1002
{
1002
}
1040
0.0
1002
}
1002
{
1040
0.5
1040
1.0
1000

1040
0.0
1002
{
1002
}
1040
0.0
1002
{
1002
}
1040
0.0
1002
}
1002
{
1070
     0
1040
0.0
1002
{
1002
}
1040
1.0
1002
{
1002
}
1040
0.0
1002
}
1002
{
1040
0.0
1002
{
1002
{
1010
0.0
1020
0.0
1030
0.0
1002
}
1040
1.0
1000

1040
0.0
1002
{
1002
}
1040
0.0
1002
{
1002
}
1040
0.0
1002
}
1002
}
1002
{
1002
{
1070
     1
1002
{
1040
0.0
1040
1.0
1000

1040
0.0
1002
{
1002
}
1040
0.0
1002
{
1002
}
1040
0.0
1002
}
1002
}
1040
0.0
1002
{
1002
}
1010
1.0
1020
0.0
1030
0.0
1010
0.0
1020
1.0
1030
0.0
1010
0.0
1020
0.0
1030
1.0
1070
     0
1002
}
1002
{
1002
{
1040
1.0
1040
1.0
1002
{
1070
     1
1002
{
1040
1.0
1040
1.0
1000

1040
0.0
1002
{
1002
}
1040
0.0
1002
{
1002
}
1040
0.0
1002
}
1002
}
1002
}
1070
     0
1040
0.0
1002
{
1002
}
1002
}
1002
{
1002
}
1002
}
1002
{
1071
        3
1070
     3
1070
     0
1002
{
1070
     2
1070
     0
1070
     0
1040
0.0
1002
}
1070
     0
1070
     2
1002
{
1002
}
1002
}
1002
{
1040
8030.0
1040
190.300003
1040
0.305
1040
228.0
1040
545.0
1040
14.0
1040
17.4
1040
0.456
1002
}
1002
}
  0
MTEXT
  5
1D6B0
100
AcDbEntity
  8
BEMASS
100
AcDbMText
 10
11164.386687
 20
4157.749658
 30
0.0
 40
20.0
 41
0.0
 71
     7
 72
     5
  1
\P
  7
ROMANS
  0
MTEXT
  5
1D6B1
100
AcDbEntity
  8
BEMASS
100
AcDbMText
 10
10507.886687
 20
3571.749658
 30
0.0
 40
20.0
 41
0.0
 71
     9
 72
     5
  1
\P
  7
ROMANS
  0
TEXT
  5
1D6B2
100
AcDbEntity
  8
STP
100
AcDbText
 10
18208.273017
 20
4838.923843
 30
0.0
 40
15.0
  1

  7
ROMANS8
100
AcDbText
  0
TEXT
  5
1D6B3
100
AcDbEntity
  8
STP
100
AcDbText
 10
18203.273017
 20
4814.638128
 30
0.0
 40
15.0
  1

  7
ROMANS8
100
AcDbText
  0
TEXT
  5
1D6B4
100
AcDbEntity
  8
STP
100
AcDbText
 10
22451.386687
 20
3224.678229
 30
0.0
 40
15.0
  1

  7
ROMANS8
100
AcDbText
  0
TEXT
  5
1D6B5
100
AcDbEntity
  8
STP
100
AcDbText
 10
18174.816691
 20
1936.12785
 30
0.0
 40
15.0
  1

  7
ROMANS8
100
AcDbText
  0
TEXT
  5
1D6B6
100
AcDbEntity
  8
STP
100
AcDbText
 10
18179.816691
 20
1960.413564
 30
0.0
 40
15.0
  1

  7
ROMANS8
100
AcDbText
  0
TEXT
  5
1D6B7
100
AcDbEntity
  8
STP
100
AcDbText
 10
20219.886687
 20
3882.035372
 30
0.0
 40
3.0
  1

  7
ROMANS8
100
AcDbText
  0
TEXT
  5
1D6B8
100
AcDbEntity
  8
STP
100
AcDbText
 10
28917.386687
 20
1886.249658
 30
0.0
 40
15.0
  1

  7
ROMANS8
100
AcDbText
  0
TEXT
  5
1D6B9
100
AcDbEntity
  8
STP
100
AcDbText
 10
28917.386687
 20
4736.249658
 30
0.0
 40
15.0
  1

  7
ROMANS8
100
AcDbText
  0
TEXT
  5
1D6BA
100
AcDbEntity
  8
STP
100
AcDbText
 10
33937.386687
 20
8408.749658
 30
0.0
 40
15.0
  1

  7
ROMANS8
100
AcDbText
  0
TEXT
  5
1D6BB
100
AcDbEntity
  8
STP
100
AcDbText
 10
33662.886687
 20
8408.749658
 30
0.0
 40
15.0
  1

  7
ROMANS8
100
AcDbText
  0
TEXT
  5
1D6BC
100
AcDbEntity
  8
STP
100
AcDbText
 10
20355.199187
 20
1977.624658
 30
0.0
 40
15.375
  1

  7
ROMANS8
100
AcDbText
  0
TEXT
  5
1D6BD
100
AcDbEntity
  8
STP
100
AcDbText
 10
20355.199187
 20
1957.6693
 30
0.0
 40
15.375
  1

  7
ROMANS8
100
AcDbText
  0
TEXT
  5
1D6BE
100
AcDbEntity
  8
STP
100
AcDbText
 10
20355.199187
 20
1937.526443
 30
0.0
 40
15.375
  1

  7
ROMANS8
100
AcDbText
  0
TEXT
  5
1D6BF
100
AcDbEntity
  8
STP
100
AcDbText
 10
20355.199187
 20
1917.508586
 30
0.0
 40
15.375
  1

  7
ROMANS8
100
AcDbText
  0
TEXT
  5
1D6C0
100
AcDbEntity
  8
STP
100
AcDbText
 10
20355.199187
 20
1897.553229
 30
0.0
 40
15.375
  1

  7
ROMANS8
100
AcDbText
  0
TEXT
  5
1D6C1
100
AcDbEntity
  8
STP
100
AcDbText
 10
24630.273017
 20
4823.423843
 30
0.0
 40
15.0
  1

  7
ROMANS8
100
AcDbText
  0
TEXT
  5
1D6C2
100
AcDbEntity
  8
STP
100
AcDbText
 10
24625.273017
 20
4799.138128
 30
0.0
 40
15.0
  1

  7
ROMANS8
100
AcDbText
  0
TEXT
  5
1D6C3
100
AcDbEntity
  8
STP
100
AcDbText
 10
28873.386687
 20
3209.178229
 30
0.0
 40
15.0
  1

  7
ROMANS8
100
AcDbText
  0
TEXT
  5
1D6C4
100
AcDbEntity
  8
STP
100
AcDbText
 10
24596.816691
 20
1920.62785
 30
0.0
 40
15.0
  1

  7
ROMANS8
100
AcDbText
  0
TEXT
  5
1D6C5
100
AcDbEntity
  8
STP
100
AcDbText
 10
24601.816691
 20
1944.913564
 30
0.0
 40
15.0
  1

  7
ROMANS8
100
AcDbText
  0
TEXT
  5
1D6C6
100
AcDbEntity
  8
STP
100
AcDbText
 10
26641.886687
 20
3866.535372
 30
0.0
 40
3.0
  1

  7
ROMANS8
100
AcDbText
  0
TEXT
  5
1D6C7
100
AcDbEntity
  8
BEMASS
100
AcDbText
 10
22825.386687
 20
2892.249658
 30
0.0
 40
50.0
  1

  7
ROMANS8
100
AcDbText
  0
TEXT
  5
1D6C8
100
AcDbEntity
  8
BEMASS
100
AcDbText
 10
26361.886687
 20
1774.392515
 30
0.0
 40
3.0
  1

  7
ROMANS8
100
AcDbText
  0
TEXT
  5
1D6C9
100
AcDbEntity
  8
BEMASS
100
AcDbText
 10
29315.386687
 20
3401.463943
 30
0.0
 40
15.0
  1

  7
ROMANS8
100
AcDbText
  0
TEXT
  5
1D6CA
100
AcDbEntity
  8
STP
100
AcDbText
 10
21603.383231
 20
4558.235274
 30
0.0
 40
3.0
  1

  7
ROMANS8
100
AcDbText
  0
TEXT
  5
1D6CB
100
AcDbEntity
  8
STP
100
AcDbText
 10
21035.261687
 20
1895.374658
 30
0.0
 40
15.375
  1

  7
ROMANS8
100
AcDbText
  0
TEXT
  5
1D6CC
100
AcDbEntity
  8
STP
100
AcDbText
 10
24837.773017
 20
7317.423843
 30
0.0
 40
15.0
  1

  7
ROMANS8
100
AcDbText
  0
TEXT
  5
1D6CD
100
AcDbEntity
  8
STP
100
AcDbText
 10
24832.773017
 20
7293.138128
 30
0.0
 40
15.0
  1

  7
ROMANS8
100
AcDbText
  0
TEXT
  5
1D6CE
100
AcDbEntity
  8
STP
100
AcDbText
 10
29080.886687
 20
5703.178229
 30
0.0
 40
15.0
  1

  7
ROMANS8
100
AcDbText
  0
TEXT
  5
1D6CF
100
AcDbEntity
  8
STP
100
AcDbText
 10
24804.316691
 20
4414.62785
 30
0.0
 40
15.0
  1

  7
ROMANS8
100
AcDbText
  0
TEXT
  5
1D6D0
100
AcDbEntity
  8
STP
100
AcDbText
 10
24809.316691
 20
4438.913564
 30
0.0
 40
15.0
  1

  7
ROMANS8
100
AcDbText
  0
TEXT
  5
1D6D1
100
AcDbEntity
  8
STP
100
AcDbText
 10
26849.386687
 20
6360.535372
 30
0.0
 40
3.0
  1

  7
ROMANS8
100
AcDbText
  0
TEXT
  5
1D6D2
100
AcDbEntity
  8
BEMASS
100
AcDbText
 10
23032.886687
 20
5386.249658
 30
0.0
 40
50.0
  1

  7
ROMANS8
100
AcDbText
  0
TEXT
  5
1D6D3
100
AcDbEntity
  8
BEMASS
100
AcDbText
 10
26569.386687
 20
4268.392515
 30
0.0
 40
3.0
  1

  7
ROMANS8
100
AcDbText
  0
TEXT
  5
1D6D4
100
AcDbEntity
  8
BEMASS
100
AcDbText
 10
29522.886687
 20
5895.463943
 30
0.0
 40
15.0
  1

  7
ROMANS8
100
AcDbText
  0
TEXT
  5
1D6D5
100
AcDbEntity
  8
STP
100
AcDbText
 10
21810.883231
 20
7052.235274
 30
0.0
 40
3.0
  1

  7
ROMANS8
100
AcDbText
  0
TEXT
  5
1D6D6
100
AcDbEntity
  8
STP
100
AcDbText
 10
31804.773017
 20
10079.423843
 30
0.0
 40
15.0
  1

  7
ROMANS8
100
AcDbText
  0
TEXT
  5
1D6D7
100
AcDbEntity
  8
STP
100
AcDbText
 10
31799.773017
 20
10055.138128
 30
0.0
 40
15.0
  1

  7
ROMANS8
100
AcDbText
  0
TEXT
  5
1D6D8
100
AcDbEntity
  8
STP
100
AcDbText
 10
36047.886687
 20
8465.178229
 30
0.0
 40
15.0
  1

  7
ROMANS8
100
AcDbText
  0
TEXT
  5
1D6D9
100
AcDbEntity
  8
STP
100
AcDbText
 10
31771.316691
 20
7176.62785
 30
0.0
 40
15.0
  1

  7
ROMANS8
100
AcDbText
  0
TEXT
  5
1D6DA
100
AcDbEntity
  8
STP
100
AcDbText
 10
31776.316691
 20
7200.913564
 30
0.0
 40
15.0
  1

  7
ROMANS8
100
AcDbText
  0
TEXT
  5
1D6DB
100
AcDbEntity
  8
STP
100
AcDbText
 10
33816.386687
 20
9122.535372
 30
0.0
 40
3.0
  1

  7
ROMANS8
100
AcDbText
  0
TEXT
  5
1D6DC
100
AcDbEntity
  8
STP
100
AcDbText
 10
42513.886687
 20
7126.749658
 30
0.0
 40
15.0
  1

  7
ROMANS8
100
AcDbText
  0
TEXT
  5
1D6DD
100
AcDbEntity
  8
STP
100
AcDbText
 10
42513.886687
 20
9976.749658
 30
0.0
 40
15.0
  1

  7
ROMANS8
100
AcDbText
  0
TEXT
  5
1D6DE
100
AcDbEntity
  8
STP
100
AcDbText
 10
47533.886687
 20
13649.249658
 30
0.0
 40
15.0
  1

  7
ROMANS8
100
AcDbText
  0
TEXT
  5
1D6DF
100
AcDbEntity
  8
STP
100
AcDbText
 10
47259.386687
 20
13649.249658
 30
0.0
 40
15.0
  1

  7
ROMANS8
100
AcDbText
  0
TEXT
  5
1D6E0
100
AcDbEntity
  8
STP
100
AcDbText
 10
38226.773017
 20
10063.923843
 30
0.0
 40
15.0
  1

  7
ROMANS8
100
AcDbText
  0
TEXT
  5
1D6E1
100
AcDbEntity
  8
STP
100
AcDbText
 10
38221.773017
 20
10039.638128
 30
0.0
 40
15.0
  1

  7
ROMANS8
100
AcDbText
  0
TEXT
  5
1D6E2
100
AcDbEntity
  8
STP
100
AcDbText
 10
42469.886687
 20
8449.678229
 30
0.0
 40
15.0
  1

  7
ROMANS8
100
AcDbText
  0
TEXT
  5
1D6E3
100
AcDbEntity
  8
STP
100
AcDbText
 10
38193.316691
 20
7161.12785
 30
0.0
 40
15.0
  1

  7
ROMANS8
100
AcDbText
  0
TEXT
  5
1D6E4
100
AcDbEntity
  8
STP
100
AcDbText
 10
38198.316691
 20
7185.413564
 30
0.0
 40
15.0
  1

  7
ROMANS8
100
AcDbText
  0
TEXT
  5
1D6E5
100
AcDbEntity
  8
STP
100
AcDbText
 10
40238.386687
 20
9107.035372
 30
0.0
 40
3.0
  1

  7
ROMANS8
100
AcDbText
  0
TEXT
  5
1D6E6
100
AcDbEntity
  8
BEMASS
100
AcDbText
 10
36421.886687
 20
8132.749658
 30
0.0
 40
50.0
  1

  7
ROMANS8
100
AcDbText
  0
TEXT
  5
1D6E7
100
AcDbEntity
  8
BEMASS
100
AcDbText
 10
39958.386687
 20
7014.892515
 30
0.0
 40
3.0
  1

  7
ROMANS8
100
AcDbText
  0
TEXT
  5
1D6E8
100
AcDbEntity
  8
BEMASS
100
AcDbText
 10
42911.886687
 20
8641.963943
 30
0.0
 40
15.0
  1

  7
ROMANS8
100
AcDbText
  0
TEXT
  5
1D6E9
100
AcDbEntity
  8
STP
100
AcDbText
 10
35199.883231
 20
9798.735274
 30
0.0
 40
3.0
  1

  7
ROMANS8
100
AcDbText
  0
TEXT
  5
1D6EA
100
AcDbEntity
  8
STP
100
AcDbText
 10
32012.273017
 20
8969.923843
 30
0.0
 40
15.0
  1

  7
ROMANS8
100
AcDbText
  0
TEXT
  5
1D6EB
100
AcDbEntity
  8
STP
100
AcDbText
 10
32007.273017
 20
8945.638128
 30
0.0
 40
15.0
  1

  7
ROMANS8
100
AcDbText
  0
TEXT
  5
1D6EC
100
AcDbEntity
  8
STP
100
AcDbText
 10
36255.386687
 20
7355.678229
 30
0.0
 40
15.0
  1

  7
ROMANS8
100
AcDbText
  0
TEXT
  5
1D6ED
100
AcDbEntity
  8
STP
100
AcDbText
 10
31978.816691
 20
6067.12785
 30
0.0
 40
15.0
  1

  7
ROMANS8
100
AcDbText
  0
TEXT
  5
1D6EE
100
AcDbEntity
  8
STP
100
AcDbText
 10
31983.816691
 20
6091.413564
 30
0.0
 40
15.0
  1

  7
ROMANS8
100
AcDbText
  0
TEXT
  5
1D6EF
100
AcDbEntity
  8
BEMASS
100
AcDbText
 10
28387.99842
 20
14035.262389
 30
0.0
 40
20.0
  1

  7
ROMANS8
100
AcDbText
  0
TEXT
  5
1D6F0
100
AcDbEntity
  8
STP
100
AcDbText
 10
32177.773017
 20
13509.923843
 30
0.0
 40
15.0
  1

  7
ROMANS8
100
AcDbText
  0
TEXT
  5
1D6F1
100
AcDbEntity
  8
STP
100
AcDbText
 10
32172.773017
 20
13485.638128
 30
0.0
 40
15.0
  1

  7
ROMANS8
100
AcDbText
  0
TEXT
  5
1D6F2
100
AcDbEntity
  8
STP
100
AcDbText
 10
36420.886687
 20
11895.678229
 30
0.0
 40
15.0
  1

  7
ROMANS8
100
AcDbText
  0
TEXT
  5
1D6F3
100
AcDbEntity
  8
STP
100
AcDbText
 10
32144.316691
 20
10607.12785
 30
0.0
 40
15.0
  1

  7
ROMANS8
100
AcDbText
  0
TEXT
  5
1D6F4
100
AcDbEntity
  8
STP
100
AcDbText
 10
32149.316691
 20
10631.413564
 30
0.0
 40
15.0
  1

  7
ROMANS8
100
AcDbText
  0
TEXT
  5
1D6F5
100
AcDbEntity
  8
STP
100
AcDbText
 10
36255.773017
 20
13512.923843
 30
0.0
 40
15.0
  1

  7
ROMANS8
100
AcDbText
  0
TEXT
  5
1D6F6
100
AcDbEntity
  8
STP
100
AcDbText
 10
36250.773017
 20
13488.638128
 30
0.0
 40
15.0
  1

  7
ROMANS8
100
AcDbText
  0
TEXT
  5
1D6F7
100
AcDbEntity
  8
STP
100
AcDbText
 10
40498.886687
 20
11898.678229
 30
0.0
 40
15.0
  1

  7
ROMANS8
100
AcDbText
  0
TEXT
  5
1D6F8
100
AcDbEntity
  8
STP
100
AcDbText
 10
36222.316691
 20
10610.12785
 30
0.0
 40
15.0
  1

  7
ROMANS8
100
AcDbText
  0
TEXT
  5
1D6F9
100
AcDbEntity
  8
STP
100
AcDbText
 10
36227.316691
 20
10634.413564
 30
0.0
 40
15.0
  1

  7
ROMANS8
100
AcDbText
  0
TEXT
  5
1D6FA
100
AcDbEntity
  8
STP
100
AcDbText
 10
38267.386687
 20
12556.035372
 30
0.0
 40
3.0
  1

  7
ROMANS8
100
AcDbText
  0
TEXT
  5
1D6FB
100
AcDbEntity
  8
STP
100
AcDbText
 10
40313.773017
 20
13980.423843
 30
0.0
 40
15.0
  1

  7
ROMANS8
100
AcDbText
  0
TEXT
  5
1D6FC
100
AcDbEntity
  8
STP
100
AcDbText
 10
40308.773017
 20
13956.138128
 30
0.0
 40
15.0
  1

  7
ROMANS8
100
AcDbText
  0
TEXT
  5
1D6FD
100
AcDbEntity
  8
STP
100
AcDbText
 10
44556.886687
 20
12366.178229
 30
0.0
 40
15.0
  1

  7
ROMANS8
100
AcDbText
  0
TEXT
  5
1D6FE
100
AcDbEntity
  8
STP
100
AcDbText
 10
40280.316691
 20
11077.62785
 30
0.0
 40
15.0
  1

  7
ROMANS8
100
AcDbText
  0
TEXT
  5
1D6FF
100
AcDbEntity
  8
STP
100
AcDbText
 10
40285.316691
 20
11101.913564
 30
0.0
 40
15.0
  1

  7
ROMANS8
100
AcDbText
  0
TEXT
  5
1D700
100
AcDbEntity
  8
STP
100
AcDbText
 10
42325.386687
 20
13023.535372
 30
0.0
 40
3.0
  1

  7
ROMANS8
100
AcDbText
  0
TEXT
  5
1D701
100
AcDbEntity
  8
BEMASS
100
AcDbText
 10
38508.886687
 20
12049.249658
 30
0.0
 40
50.0
  1

  7
ROMANS8
100
AcDbText
  0
TEXT
  5
1D702
100
AcDbEntity
  8
BEMASS
100
AcDbText
 10
42045.386687
 20
10931.392515
 30
0.0
 40
3.0
  1

  7
ROMANS8
100
AcDbText
  0
TEXT
  5
1D703
100
AcDbEntity
  8
BEMASS
100
AcDbText
 10
44998.886687
 20
12558.463943
 30
0.0
 40
15.0
  1

  7
ROMANS8
100
AcDbText
  0
TEXT
  5
1D704
100
AcDbEntity
  8
BEMASS
100
AcDbText
 10
28760.99842
 20
13235.262389
 30
0.0
 40
20.0
  1

  7
ROMANS8
100
AcDbText
  0
INSERT
  5
1D705
100
AcDbEntity
  8
ASHADE
 62
     1
100
AcDbBlockReference
  2
AVE_RENDER
 10
33494.886687
 20
13974.749658
 30
0.0
1001
AVE_RENDER
1002
{
1070
     2
1000
Pref
1070
    30
1070
    20
1070
     0
1070
     0
1000

1070
    10
1070
     0
1070
    30
1040
1.0
1070
     1
1040
0.3
1040
0.7
1040
0.0
1040
10.0
1010
-1.0
1020
-1.0
1030
-1.0
1040
0.3
1070
    49
1002
}
  0
INSERT
  5
1D706
100
AcDbEntity
  8
ASHADE
 62
     3
100
AcDbBlockReference
  2
AVE_RENDER
 10
33494.886687
 20
13974.749658
 30
0.0
1001
AVE_RENDER
1002
{
1070
     0
1000
Full Opt
1070
     0
1070
     1
1070
     1
1070
     1
1070
     0
1070
     0
1070
     0
1070
     1
1070
     1
1040
0.0001
1040
0.0001
1002
}
  0
INSERT
  5
1D707
100
AcDbEntity
  8
ASHADE
 62
     4
100
AcDbBlockReference
  2
AVE_RENDER
 10
33494.886687
 20
13974.749658
 30
0.0
1001
AVE_RENDER
1002
{
1070
     0
1000
Quick Opt
1070
     0
1070
     1
1070
     1
1070
     1
1070
     0
1070
     0
1070
     1
1002
}
  0
TEXT
  5
1D708
100
AcDbEntity
  8
STP
100
AcDbText
 10
10436.931056
 20
5292.767573
 30
0.0
 40
30.0
  1
 
  7
ROMANS8
100
AcDbText
  0
TEXT
  5
1D709
100
AcDbEntity
  8
STP
100
AcDbText
 10
10436.931056
 20
5244.196144
 30
0.0
 40
30.0
  1
 
  7
ROMANS8
100
AcDbText
  0
TEXT
  5
1D70A
100
AcDbEntity
  8
STP
100
AcDbText
 10
10436.931056
 20
5195.624716
 30
0.0
 40
30.0
  1
 
  7
ROMANS8
100
AcDbText
  0
TEXT
  5
1D70B
100
AcDbEntity
  8
STP
100
AcDbText
 10
13746.931056
 20
7252.767573
 30
0.0
 40
30.0
  1
 
  7
ROMANS8
100
AcDbText
  0
TEXT
  5
1D70C
100
AcDbEntity
  8
STP
100
AcDbText
 10
13746.931056
 20
7204.196144
 30
0.0
 40
30.0
  1
 
  7
ROMANS8
100
AcDbText
  0
TEXT
  5
1D70D
100
AcDbEntity
  8
STP
100
AcDbText
 10
13746.931056
 20
7155.624716
 30
0.0
 40
30.0
  1
 
  7
ROMANS8
100
AcDbText
  0
TEXT
  5
1D70E
100
AcDbEntity
  8
STP
100
AcDbText
 10
10446.042178
 20
10377.312193
 30
0.0
 40
30.0
  1
 
  7
ROMANS8
100
AcDbText
  0
TEXT
  5
1D70F
100
AcDbEntity
  8
STP
100
AcDbText
 10
10446.042178
 20
10328.740764
 30
0.0
 40
30.0
  1
 
  7
ROMANS8
100
AcDbText
  0
TEXT
  5
1D710
100
AcDbEntity
  8
STP
100
AcDbText
 10
10446.042178
 20
10280.169336
 30
0.0
 40
30.0
  1
 
  7
ROMANS8
100
AcDbText
  0
TEXT
  5
1D711
100
AcDbEntity
  8
STP
100
AcDbText
 10
11190.931056
 20
5554.339001
 30
0.0
 40
15.0
  1

  7
ROMANS8
100
AcDbText
  0
TEXT
  5
1D712
100
AcDbEntity
  8
BEMASS
100
AcDbText
 10
3530.648116
 20
3515.888835
 30
0.0
 40
30.0
  1

  7
ROMANS8
100
AcDbText
  0
TEXT
  5
1D713
100
AcDbEntity
  8
BEMASS
100
AcDbText
 10
23434.386687
 20
8751.749658
 30
0.0
 40
30.0
  1

  7
ROMANS8
100
AcDbText
  0
TEXT
  5
1D714
100
AcDbEntity
  8
BEMASS
100
AcDbText
 10
3870.648116
 20
3515.888835
 30
0.0
 40
30.0
  1

  7
ROMANS8
100
AcDbText
  0
TEXT
  5
1D715
100
AcDbEntity
  8
BEMASS
100
AcDbText
 10
3670.648116
 20
3515.888835
 30
0.0
 40
30.0
  1

  7
ROMANS8
100
AcDbText
  0
TEXT
  5
1D716
100
AcDbEntity
  8
STP
100
AcDbText
 10
17369.112001
 20
11006.854595
 30
0.0
 40
3.075
  1

  7
ROMANS8
100
AcDbText
  0
TEXT
  5
1D717
100
AcDbEntity
  8
STP
100
AcDbText
 10
17369.112001
 20
11002.863523
 30
0.0
 40
3.075
  1

  7
ROMANS8
100
AcDbText
  0
TEXT
  5
1D718
100
AcDbEntity
  8
STP
100
AcDbText
 10
17369.112001
 20
10998.834952
 30
0.0
 40
3.075
  1

  7
ROMANS8
100
AcDbText
  0
TEXT
  5
1D719
100
AcDbEntity
  8
STP
100
AcDbText
 10
17369.112001
 20
10994.83138
 30
0.0
 40
3.075
  1

  7
ROMANS8
100
AcDbText
  0
TEXT
  5
1D71A
100
AcDbEntity
  8
STP
100
AcDbText
 10
17369.112001
 20
10990.840309
 30
0.0
 40
3.075
  1

  7
ROMANS8
100
AcDbText
  0
TEXT
  5
1D71B
100
AcDbEntity
  8
STP
100
AcDbText
 10
15556.944514
 20
8310.813199
 30
0.0
 40
3.0
  1

  7
ROMANS8
100
AcDbText
  0
TEXT
  5
1D71C
100
AcDbEntity
  8
STP
100
AcDbText
 10
15556.944514
 20
8304.956056
 30
0.0
 40
3.0
  1

  7
ROMANS8
100
AcDbText
  0
TEXT
  5
1D71D
100
AcDbEntity
  8
STP
100
AcDbText
 10
17497.112001
 20
13856.854595
 30
0.0
 40
3.075
  1

  7
ROMANS8
100
AcDbText
  0
TEXT
  5
1D71E
100
AcDbEntity
  8
STP
100
AcDbText
 10
17497.112001
 20
13852.863523
 30
0.0
 40
3.075
  1

  7
ROMANS8
100
AcDbText
  0
TEXT
  5
1D71F
100
AcDbEntity
  8
STP
100
AcDbText
 10
17497.112001
 20
13848.834952
 30
0.0
 40
3.075
  1

  7
ROMANS8
100
AcDbText
  0
TEXT
  5
1D720
100
AcDbEntity
  8
STP
100
AcDbText
 10
17497.112001
 20
13844.83138
 30
0.0
 40
3.075
  1

  7
ROMANS8
100
AcDbText
  0
TEXT
  5
1D721
100
AcDbEntity
  8
STP
100
AcDbText
 10
17497.112001
 20
13840.840309
 30
0.0
 40
3.075
  1

  7
ROMANS8
100
AcDbText
  0
TEXT
  5
1D722
100
AcDbEntity
  8
STP
100
AcDbText
 10
15684.944514
 20
11160.813199
 30
0.0
 40
3.0
  1

  7
ROMANS8
100
AcDbText
  0
TEXT
  5
1D723
100
AcDbEntity
  8
STP
100
AcDbText
 10
15684.944514
 20
11154.956056
 30
0.0
 40
3.0
  1

  7
ROMANS8
100
AcDbText
  0
TEXT
  5
1D724
100
AcDbEntity
  8
STP
100
AcDbText
 10
18691.396883
 20
10517.190096
 30
0.0
 40
15.0
  1

  7
ROMANS8
100
AcDbText
  0
TEXT
  5
1D725
100
AcDbEntity
  8
STP
100
AcDbText
 10
18791.396883
 20
10517.190096
 30
0.0
 40
15.0
  1

  7
ROMANS8
100
AcDbText
  0
TEXT
  5
1D726
100
AcDbEntity
  8
STP
100
AcDbText
 10
18591.396883
 20
10517.190096
 30
0.0
 40
15.0
  1

  7
ROMANS8
100
AcDbText
  0
TEXT
  5
1D727
100
AcDbEntity
  8
STP
100
AcDbText
 10
18591.396883
 20
10487.190096
 30
0.0
 40
15.0
  1

  7
ROMANS8
100
AcDbText
  0
TEXT
  5
1D728
100
AcDbEntity
  8
STP
100
AcDbText
 10
18691.396883
 20
10487.190096
 30
0.0
 40
15.0
  1

  7
ROMANS8
100
AcDbText
  0
TEXT
  5
1D729
100
AcDbEntity
  8
STP
100
AcDbText
 10
18791.396883
 20
10487.190096
 30
0.0
 40
15.0
  1

  7
ROMANS8
100
AcDbText
  0
TEXT
  5
1D72A
100
AcDbEntity
  8
STP
100
AcDbText
 10
17467.112001
 20
15001.854595
 30
0.0
 40
3.075
  1

  7
ROMANS8
100
AcDbText
  0
TEXT
  5
1D72B
100
AcDbEntity
  8
STP
100
AcDbText
 10
17467.112001
 20
14997.863523
 30
0.0
 40
3.075
  1

  7
ROMANS8
100
AcDbText
  0
TEXT
  5
1D72C
100
AcDbEntity
  8
STP
100
AcDbText
 10
17467.112001
 20
14993.834952
 30
0.0
 40
3.075
  1

  7
ROMANS8
100
AcDbText
  0
TEXT
  5
1D72D
100
AcDbEntity
  8
STP
100
AcDbText
 10
17467.112001
 20
14989.83138
 30
0.0
 40
3.075
  1

  7
ROMANS8
100
AcDbText
  0
TEXT
  5
1D72E
100
AcDbEntity
  8
STP
100
AcDbText
 10
17467.112001
 20
14985.840309
 30
0.0
 40
3.075
  1

  7
ROMANS8
100
AcDbText
  0
TEXT
  5
1D72F
100
AcDbEntity
  8
STP
100
AcDbText
 10
15654.944514
 20
12305.813199
 30
0.0
 40
3.0
  1

  7
ROMANS8
100
AcDbText
  0
TEXT
  5
1D730
100
AcDbEntity
  8
STP
100
AcDbText
 10
15654.944514
 20
12299.956056
 30
0.0
 40
3.0
  1

  7
ROMANS8
100
AcDbText
  0
MTEXT
  5
1D731
100
AcDbEntity
  8
BEMASS
100
AcDbMText
 10
6834.633715
 20
7822.073516
 30
0.0
 40
25.0
 41
0.0
 71
     7
 72
     5
  1

  7
ROMANS
  0
MTEXT
  5
1D732
100
AcDbEntity
  8
BEMASS
100
AcDbMText
 10
7061.80941
 20
7822.073516
 30
0.0
 40
25.0
 41
0.0
 71
     9
 72
     5
  1

  7
ROMANS
  0
TEXT
  5
1D733
100
AcDbEntity
  8
STP
100
AcDbText
 10
15635.139895
 20
12423.428973
 30
0.0
 40
15.0
  1

  7
ROMANS8
100
AcDbText
  0
TEXT
  5
1D734
100
AcDbEntity
  8
STP
100
AcDbText
 10
15630.139895
 20
12399.143259
 30
0.0
 40
15.0
  1

  7
ROMANS8
100
AcDbText
  0
TEXT
  5
1D735
100
AcDbEntity
  8
STP
100
AcDbText
 10
19878.253565
 20
10809.183359
 30
0.0
 40
15.0
  1

  7
ROMANS8
100
AcDbText
  0
TEXT
  5
1D736
100
AcDbEntity
  8
STP
100
AcDbText
 10
15601.683569
 20
9520.632981
 30
0.0
 40
15.0
  1

  7
ROMANS8
100
AcDbText
  0
TEXT
  5
1D737
100
AcDbEntity
  8
STP
100
AcDbText
 10
15606.683569
 20
9544.918695
 30
0.0
 40
15.0
  1

  7
ROMANS8
100
AcDbText
  0
TEXT
  5
1D738
100
AcDbEntity
  8
STP
100
AcDbText
 10
17646.753565
 20
11466.540502
 30
0.0
 40
3.0
  1

  7
ROMANS8
100
AcDbText
  0
TEXT
  5
1D739
100
AcDbEntity
  8
BEMASS
100
AcDbText
 10
13830.253565
 20
10492.254788
 30
0.0
 40
50.0
  1

  7
ROMANS8
100
AcDbText
  0
TEXT
  5
1D73A
100
AcDbEntity
  8
BEMASS
100
AcDbText
 10
17366.753565
 20
9374.397645
 30
0.0
 40
3.0
  1

  7
ROMANS8
100
AcDbText
  0
TEXT
  5
1D73B
100
AcDbEntity
  8
BEMASS
100
AcDbText
 10
20320.253565
 20
11001.469074
 30
0.0
 40
15.0
  1

  7
ROMANS8
100
AcDbText
  0
TEXT
  5
1D73C
100
AcDbEntity
  8
STP
100
AcDbText
 10
12608.250109
 20
12158.240405
 30
0.0
 40
3.0
  1

  7
ROMANS8
100
AcDbText
  0
TEXT
  5
1D73D
100
AcDbEntity
  8
STP
100
AcDbText
 10
22602.139895
 20
15185.428973
 30
0.0
 40
15.0
  1

  7
ROMANS8
100
AcDbText
  0
TEXT
  5
1D73E
100
AcDbEntity
  8
STP
100
AcDbText
 10
22597.139895
 20
15161.143259
 30
0.0
 40
15.0
  1

  7
ROMANS8
100
AcDbText
  0
TEXT
  5
1D73F
100
AcDbEntity
  8
STP
100
AcDbText
 10
26845.253565
 20
13571.183359
 30
0.0
 40
15.0
  1

  7
ROMANS8
100
AcDbText
  0
TEXT
  5
1D740
100
AcDbEntity
  8
STP
100
AcDbText
 10
22568.683569
 20
12282.632981
 30
0.0
 40
15.0
  1

  7
ROMANS8
100
AcDbText
  0
TEXT
  5
1D741
100
AcDbEntity
  8
STP
100
AcDbText
 10
22573.683569
 20
12306.918695
 30
0.0
 40
15.0
  1

  7
ROMANS8
100
AcDbText
  0
TEXT
  5
1D742
100
AcDbEntity
  8
STP
100
AcDbText
 10
24613.753565
 20
14228.540502
 30
0.0
 40
3.0
  1

  7
ROMANS8
100
AcDbText
  0
TEXT
  5
1D743
100
AcDbEntity
  8
STP
100
AcDbText
 10
33311.253565
 20
12232.754788
 30
0.0
 40
15.0
  1

  7
ROMANS8
100
AcDbText
  0
TEXT
  5
1D744
100
AcDbEntity
  8
STP
100
AcDbText
 10
33311.253565
 20
15082.754788
 30
0.0
 40
15.0
  1

  7
ROMANS8
100
AcDbText
  0
TEXT
  5
1D745
100
AcDbEntity
  8
STP
100
AcDbText
 10
38331.253565
 20
18755.254788
 30
0.0
 40
15.0
  1

  7
ROMANS8
100
AcDbText
  0
TEXT
  5
1D746
100
AcDbEntity
  8
STP
100
AcDbText
 10
38056.753565
 20
18755.254788
 30
0.0
 40
15.0
  1

  7
ROMANS8
100
AcDbText
  0
TEXT
  5
1D747
100
AcDbEntity
  8
STP
100
AcDbText
 10
29024.139895
 20
15169.928973
 30
0.0
 40
15.0
  1

  7
ROMANS8
100
AcDbText
  0
TEXT
  5
1D748
100
AcDbEntity
  8
STP
100
AcDbText
 10
29019.139895
 20
15145.643259
 30
0.0
 40
15.0
  1

  7
ROMANS8
100
AcDbText
  0
TEXT
  5
1D749
100
AcDbEntity
  8
STP
100
AcDbText
 10
33267.253565
 20
13555.683359
 30
0.0
 40
15.0
  1

  7
ROMANS8
100
AcDbText
  0
TEXT
  5
1D74A
100
AcDbEntity
  8
STP
100
AcDbText
 10
28990.683569
 20
12267.132981
 30
0.0
 40
15.0
  1

  7
ROMANS8
100
AcDbText
  0
TEXT
  5
1D74B
100
AcDbEntity
  8
STP
100
AcDbText
 10
28995.683569
 20
12291.418695
 30
0.0
 40
15.0
  1

  7
ROMANS8
100
AcDbText
  0
TEXT
  5
1D74C
100
AcDbEntity
  8
STP
100
AcDbText
 10
31035.753565
 20
14213.040502
 30
0.0
 40
3.0
  1

  7
ROMANS8
100
AcDbText
  0
TEXT
  5
1D74D
100
AcDbEntity
  8
BEMASS
100
AcDbText
 10
27219.253565
 20
13238.754788
 30
0.0
 40
50.0
  1

  7
ROMANS8
100
AcDbText
  0
TEXT
  5
1D74E
100
AcDbEntity
  8
BEMASS
100
AcDbText
 10
30755.753565
 20
12120.897645
 30
0.0
 40
3.0
  1

  7
ROMANS8
100
AcDbText
  0
TEXT
  5
1D74F
100
AcDbEntity
  8
BEMASS
100
AcDbText
 10
33709.253565
 20
13747.969074
 30
0.0
 40
15.0
  1

  7
ROMANS8
100
AcDbText
  0
TEXT
  5
1D750
100
AcDbEntity
  8
STP
100
AcDbText
 10
25997.250109
 20
14904.740405
 30
0.0
 40
3.0
  1

  7
ROMANS8
100
AcDbText
  0
TEXT
  5
1D751
100
AcDbEntity
  8
STP
100
AcDbText
 10
22809.639895
 20
14075.928973
 30
0.0
 40
15.0
  1

  7
ROMANS8
100
AcDbText
  0
TEXT
  5
1D752
100
AcDbEntity
  8
STP
100
AcDbText
 10
22804.639895
 20
14051.643259
 30
0.0
 40
15.0
  1

  7
ROMANS8
100
AcDbText
  0
TEXT
  5
1D753
100
AcDbEntity
  8
STP
100
AcDbText
 10
27052.753565
 20
12461.683359
 30
0.0
 40
15.0
  1

  7
ROMANS8
100
AcDbText
  0
TEXT
  5
1D754
100
AcDbEntity
  8
STP
100
AcDbText
 10
22776.183569
 20
11173.132981
 30
0.0
 40
15.0
  1

  7
ROMANS8
100
AcDbText
  0
TEXT
  5
1D755
100
AcDbEntity
  8
STP
100
AcDbText
 10
22781.183569
 20
11197.418695
 30
0.0
 40
15.0
  1

  7
ROMANS8
100
AcDbText
  0
TEXT
  5
1D756
100
AcDbEntity
  8
BEMASS
100
AcDbText
 10
19185.365299
 20
19141.267519
 30
0.0
 40
20.0
  1

  7
ROMANS8
100
AcDbText
  0
TEXT
  5
1D757
100
AcDbEntity
  8
STP
100
AcDbText
 10
22975.139895
 20
18615.928973
 30
0.0
 40
15.0
  1

  7
ROMANS8
100
AcDbText
  0
TEXT
  5
1D758
100
AcDbEntity
  8
STP
100
AcDbText
 10
22970.139895
 20
18591.643259
 30
0.0
 40
15.0
  1

  7
ROMANS8
100
AcDbText
  0
TEXT
  5
1D759
100
AcDbEntity
  8
STP
100
AcDbText
 10
27218.253565
 20
17001.683359
 30
0.0
 40
15.0
  1

  7
ROMANS8
100
AcDbText
  0
TEXT
  5
1D75A
100
AcDbEntity
  8
STP
100
AcDbText
 10
22941.683569
 20
15713.132981
 30
0.0
 40
15.0
  1

  7
ROMANS8
100
AcDbText
  0
TEXT
  5
1D75B
100
AcDbEntity
  8
STP
100
AcDbText
 10
22946.683569
 20
15737.418695
 30
0.0
 40
15.0
  1

  7
ROMANS8
100
AcDbText
  0
TEXT
  5
1D75C
100
AcDbEntity
  8
STP
100
AcDbText
 10
27053.139895
 20
18618.928973
 30
0.0
 40
15.0
  1

  7
ROMANS8
100
AcDbText
  0
TEXT
  5
1D75D
100
AcDbEntity
  8
STP
100
AcDbText
 10
27048.139895
 20
18594.643259
 30
0.0
 40
15.0
  1

  7
ROMANS8
100
AcDbText
  0
TEXT
  5
1D75E
100
AcDbEntity
  8
STP
100
AcDbText
 10
31296.253565
 20
17004.683359
 30
0.0
 40
15.0
  1

  7
ROMANS8
100
AcDbText
  0
TEXT
  5
1D75F
100
AcDbEntity
  8
STP
100
AcDbText
 10
27019.683569
 20
15716.132981
 30
0.0
 40
15.0
  1

  7
ROMANS8
100
AcDbText
  0
TEXT
  5
1D760
100
AcDbEntity
  8
STP
100
AcDbText
 10
27024.683569
 20
15740.418695
 30
0.0
 40
15.0
  1

  7
ROMANS8
100
AcDbText
  0
TEXT
  5
1D761
100
AcDbEntity
  8
STP
100
AcDbText
 10
29064.753565
 20
17662.040502
 30
0.0
 40
3.0
  1

  7
ROMANS8
100
AcDbText
  0
TEXT
  5
1D762
100
AcDbEntity
  8
STP
100
AcDbText
 10
31111.139895
 20
19086.428973
 30
0.0
 40
15.0
  1

  7
ROMANS8
100
AcDbText
  0
TEXT
  5
1D763
100
AcDbEntity
  8
STP
100
AcDbText
 10
31106.139895
 20
19062.143259
 30
0.0
 40
15.0
  1

  7
ROMANS8
100
AcDbText
  0
TEXT
  5
1D764
100
AcDbEntity
  8
STP
100
AcDbText
 10
35354.253565
 20
17472.183359
 30
0.0
 40
15.0
  1

  7
ROMANS8
100
AcDbText
  0
TEXT
  5
1D765
100
AcDbEntity
  8
STP
100
AcDbText
 10
31077.683569
 20
16183.632981
 30
0.0
 40
15.0
  1

  7
ROMANS8
100
AcDbText
  0
TEXT
  5
1D766
100
AcDbEntity
  8
STP
100
AcDbText
 10
31082.683569
 20
16207.918695
 30
0.0
 40
15.0
  1

  7
ROMANS8
100
AcDbText
  0
TEXT
  5
1D767
100
AcDbEntity
  8
STP
100
AcDbText
 10
33122.753565
 20
18129.540502
 30
0.0
 40
3.0
  1

  7
ROMANS8
100
AcDbText
  0
TEXT
  5
1D768
100
AcDbEntity
  8
BEMASS
100
AcDbText
 10
29306.253565
 20
17155.254788
 30
0.0
 40
50.0
  1

  7
ROMANS8
100
AcDbText
  0
TEXT
  5
1D769
100
AcDbEntity
  8
BEMASS
100
AcDbText
 10
32842.753565
 20
16037.397645
 30
0.0
 40
3.0
  1

  7
ROMANS8
100
AcDbText
  0
TEXT
  5
1D76A
100
AcDbEntity
  8
BEMASS
100
AcDbText
 10
35796.253565
 20
17664.469074
 30
0.0
 40
15.0
  1

  7
ROMANS8
100
AcDbText
  0
TEXT
  5
1D76B
100
AcDbEntity
  8
BEMASS
100
AcDbText
 10
19558.365299
 20
18341.267519
 30
0.0
 40
20.0
  1

  7
ROMANS8
100
AcDbText
  0
INSERT
  5
1D76C
100
AcDbEntity
  8
ASHADE
 62
     1
100
AcDbBlockReference
  2
AVE_RENDER
 10
24292.253565
 20
19080.754788
 30
0.0
1001
AVE_RENDER
1002
{
1070
     2
1000
Pref
1070
    30
1070
    20
1070
     0
1070
     0
1000

1070
    10
1070
     0
1070
    30
1040
1.0
1070
     1
1040
0.3
1040
0.7
1040
0.0
1040
10.0
1010
-1.0
1020
-1.0
1030
-1.0
1040
0.3
1070
    49
1002
}
  0
INSERT
  5
1D76D
100
AcDbEntity
  8
ASHADE
 62
     3
100
AcDbBlockReference
  2
AVE_RENDER
 10
24292.253565
 20
19080.754788
 30
0.0
1001
AVE_RENDER
1002
{
1070
     0
1000
Full Opt
1070
     0
1070
     1
1070
     1
1070
     1
1070
     0
1070
     0
1070
     0
1070
     1
1070
     1
1040
0.0001
1040
0.0001
1002
}
  0
INSERT
  5
1D76E
100
AcDbEntity
  8
ASHADE
 62
     4
100
AcDbBlockReference
  2
AVE_RENDER
 10
24292.253565
 20
19080.754788
 30
0.0
1001
AVE_RENDER
1002
{
1070
     0
1000
Quick Opt
1070
     0
1070
     1
1070
     1
1070
     1
1070
     0
1070
     0
1070
     1
1002
}
  0
TEXT
  5
1D76F
100
AcDbEntity
  8
STP
100
AcDbText
 10
18619.822496
 20
5693.925371
 30
0.0
 40
15.0
  1

  7
ROMANS8
100
AcDbText
  0
TEXT
  5
1D770
100
AcDbEntity
  8
STP
100
AcDbText
 10
18614.822496
 20
5669.639657
 30
0.0
 40
15.0
  1

  7
ROMANS8
100
AcDbText
  0
TEXT
  5
1D771
100
AcDbEntity
  8
STP
100
AcDbText
 10
22862.936165
 20
4079.679757
 30
0.0
 40
15.0
  1

  7
ROMANS8
100
AcDbText
  0
TEXT
  5
1D772
100
AcDbEntity
  8
STP
100
AcDbText
 10
18586.366169
 20
2791.129378
 30
0.0
 40
15.0
  1

  7
ROMANS8
100
AcDbText
  0
TEXT
  5
1D773
100
AcDbEntity
  8
STP
100
AcDbText
 10
18591.366169
 20
2815.415093
 30
0.0
 40
15.0
  1

  7
ROMANS8
100
AcDbText
  0
TEXT
  5
1D774
100
AcDbEntity
  8
STP
100
AcDbText
 10
20631.436165
 20
4737.0369
 30
0.0
 40
3.0
  1

  7
ROMANS8
100
AcDbText
  0
TEXT
  5
1D775
100
AcDbEntity
  8
STP
100
AcDbText
 10
29328.936165
 20
2741.251186
 30
0.0
 40
15.0
  1

  7
ROMANS8
100
AcDbText
  0
TEXT
  5
1D776
100
AcDbEntity
  8
STP
100
AcDbText
 10
29328.936165
 20
5591.251186
 30
0.0
 40
15.0
  1

  7
ROMANS8
100
AcDbText
  0
TEXT
  5
1D777
100
AcDbEntity
  8
STP
100
AcDbText
 10
34348.936165
 20
9263.751186
 30
0.0
 40
15.0
  1

  7
ROMANS8
100
AcDbText
  0
TEXT
  5
1D778
100
AcDbEntity
  8
STP
100
AcDbText
 10
34074.436165
 20
9263.751186
 30
0.0
 40
15.0
  1

  7
ROMANS8
100
AcDbText
  0
TEXT
  5
1D779
100
AcDbEntity
  8
STP
100
AcDbText
 10
20766.748665
 20
2832.626186
 30
0.0
 40
15.375
  1

  7
ROMANS8
100
AcDbText
  0
TEXT
  5
1D77A
100
AcDbEntity
  8
STP
100
AcDbText
 10
20766.748665
 20
2812.670829
 30
0.0
 40
15.375
  1

  7
ROMANS8
100
AcDbText
  0
TEXT
  5
1D77B
100
AcDbEntity
  8
STP
100
AcDbText
 10
20766.748665
 20
2792.527971
 30
0.0
 40
15.375
  1

  7
ROMANS8
100
AcDbText
  0
TEXT
  5
1D77C
100
AcDbEntity
  8
STP
100
AcDbText
 10
20766.748665
 20
2772.510114
 30
0.0
 40
15.375
  1

  7
ROMANS8
100
AcDbText
  0
TEXT
  5
1D77D
100
AcDbEntity
  8
STP
100
AcDbText
 10
20766.748665
 20
2752.554757
 30
0.0
 40
15.375
  1

  7
ROMANS8
100
AcDbText
  0
TEXT
  5
1D77E
100
AcDbEntity
  8
STP
100
AcDbText
 10
25041.822496
 20
5678.425371
 30
0.0
 40
15.0
  1

  7
ROMANS8
100
AcDbText
  0
TEXT
  5
1D77F
100
AcDbEntity
  8
STP
100
AcDbText
 10
25036.822496
 20
5654.139657
 30
0.0
 40
15.0
  1

  7
ROMANS8
100
AcDbText
  0
TEXT
  5
1D780
100
AcDbEntity
  8
STP
100
AcDbText
 10
29284.936165
 20
4064.179757
 30
0.0
 40
15.0
  1

  7
ROMANS8
100
AcDbText
  0
TEXT
  5
1D781
100
AcDbEntity
  8
STP
100
AcDbText
 10
25008.366169
 20
2775.629378
 30
0.0
 40
15.0
  1

  7
ROMANS8
100
AcDbText
  0
TEXT
  5
1D782
100
AcDbEntity
  8
STP
100
AcDbText
 10
25013.366169
 20
2799.915093
 30
0.0
 40
15.0
  1

  7
ROMANS8
100
AcDbText
  0
TEXT
  5
1D783
100
AcDbEntity
  8
STP
100
AcDbText
 10
27053.436165
 20
4721.5369
 30
0.0
 40
3.0
  1

  7
ROMANS8
100
AcDbText
  0
TEXT
  5
1D784
100
AcDbEntity
  8
BEMASS
100
AcDbText
 10
23236.936165
 20
3747.251186
 30
0.0
 40
50.0
  1

  7
ROMANS8
100
AcDbText
  0
TEXT
  5
1D785
100
AcDbEntity
  8
BEMASS
100
AcDbText
 10
26773.436165
 20
2629.394043
 30
0.0
 40
3.0
  1

  7
ROMANS8
100
AcDbText
  0
TEXT
  5
1D786
100
AcDbEntity
  8
BEMASS
100
AcDbText
 10
29726.936165
 20
4256.465471
 30
0.0
 40
15.0
  1

  7
ROMANS8
100
AcDbText
  0
TEXT
  5
1D787
100
AcDbEntity
  8
STP
100
AcDbText
 10
22014.932709
 20
5413.236803
 30
0.0
 40
3.0
  1

  7
ROMANS8
100
AcDbText
  0
TEXT
  5
1D788
100
AcDbEntity
  8
STP
100
AcDbText
 10
21727.487729
 20
5705.585485
 30
0.0
 40
15.0
  1

  7
ROMANS8
100
AcDbText
  0
TEXT
  5
1D789
100
AcDbEntity
  8
STP
100
AcDbText
 10
21722.487729
 20
5681.299771
 30
0.0
 40
15.0
  1

  7
ROMANS8
100
AcDbText
  0
TEXT
  5
1D78A
100
AcDbEntity
  8
STP
100
AcDbText
 10
25970.601398
 20
4091.339872
 30
0.0
 40
15.0
  1

  7
ROMANS8
100
AcDbText
  0
TEXT
  5
1D78B
100
AcDbEntity
  8
STP
100
AcDbText
 10
21694.031402
 20
2802.789493
 30
0.0
 40
15.0
  1

  7
ROMANS8
100
AcDbText
  0
TEXT
  5
1D78C
100
AcDbEntity
  8
STP
100
AcDbText
 10
21699.031402
 20
2827.075207
 30
0.0
 40
15.0
  1

  7
ROMANS8
100
AcDbText
  0
TEXT
  5
1D78D
100
AcDbEntity
  8
STP
100
AcDbText
 10
23739.101398
 20
4748.697015
 30
0.0
 40
3.0
  1

  7
ROMANS8
100
AcDbText
  0
TEXT
  5
1D78E
100
AcDbEntity
  8
STP
100
AcDbText
 10
32436.601398
 20
2752.9113
 30
0.0
 40
15.0
  1

  7
ROMANS8
100
AcDbText
  0
TEXT
  5
1D78F
100
AcDbEntity
  8
STP
100
AcDbText
 10
32436.601398
 20
5602.9113
 30
0.0
 40
15.0
  1

  7
ROMANS8
100
AcDbText
  0
TEXT
  5
1D790
100
AcDbEntity
  8
STP
100
AcDbText
 10
37456.601398
 20
9275.4113
 30
0.0
 40
15.0
  1

  7
ROMANS8
100
AcDbText
  0
TEXT
  5
1D791
100
AcDbEntity
  8
STP
100
AcDbText
 10
37182.101398
 20
9275.4113
 30
0.0
 40
15.0
  1

  7
ROMANS8
100
AcDbText
  0
TEXT
  5
1D792
100
AcDbEntity
  8
STP
100
AcDbText
 10
23874.413898
 20
2844.2863
 30
0.0
 40
15.375
  1

  7
ROMANS8
100
AcDbText
  0
TEXT
  5
1D793
100
AcDbEntity
  8
STP
100
AcDbText
 10
23874.413898
 20
2824.330943
 30
0.0
 40
15.375
  1

  7
ROMANS8
100
AcDbText
  0
TEXT
  5
1D794
100
AcDbEntity
  8
STP
100
AcDbText
 10
23874.413898
 20
2804.188086
 30
0.0
 40
15.375
  1

  7
ROMANS8
100
AcDbText
  0
TEXT
  5
1D795
100
AcDbEntity
  8
STP
100
AcDbText
 10
23874.413898
 20
2784.170229
 30
0.0
 40
15.375
  1

  7
ROMANS8
100
AcDbText
  0
TEXT
  5
1D796
100
AcDbEntity
  8
STP
100
AcDbText
 10
23874.413898
 20
2764.214872
 30
0.0
 40
15.375
  1

  7
ROMANS8
100
AcDbText
  0
TEXT
  5
1D797
100
AcDbEntity
  8
STP
100
AcDbText
 10
28149.487729
 20
5690.085485
 30
0.0
 40
15.0
  1

  7
ROMANS8
100
AcDbText
  0
TEXT
  5
1D798
100
AcDbEntity
  8
STP
100
AcDbText
 10
28144.487729
 20
5665.799771
 30
0.0
 40
15.0
  1

  7
ROMANS8
100
AcDbText
  0
TEXT
  5
1D799
100
AcDbEntity
  8
STP
100
AcDbText
 10
32392.601398
 20
4075.839872
 30
0.0
 40
15.0
  1

  7
ROMANS8
100
AcDbText
  0
TEXT
  5
1D79A
100
AcDbEntity
  8
STP
100
AcDbText
 10
28116.031402
 20
2787.289493
 30
0.0
 40
15.0
  1

  7
ROMANS8
100
AcDbText
  0
TEXT
  5
1D79B
100
AcDbEntity
  8
STP
100
AcDbText
 10
28121.031402
 20
2811.575207
 30
0.0
 40
15.0
  1

  7
ROMANS8
100
AcDbText
  0
TEXT
  5
1D79C
100
AcDbEntity
  8
STP
100
AcDbText
 10
30161.101398
 20
4733.197015
 30
0.0
 40
3.0
  1

  7
ROMANS8
100
AcDbText
  0
TEXT
  5
1D79D
100
AcDbEntity
  8
BEMASS
100
AcDbText
 10
26344.601398
 20
3758.9113
 30
0.0
 40
50.0
  1

  7
ROMANS8
100
AcDbText
  0
TEXT
  5
1D79E
100
AcDbEntity
  8
BEMASS
100
AcDbText
 10
29881.101398
 20
2641.054157
 30
0.0
 40
3.0
  1

  7
ROMANS8
100
AcDbText
  0
TEXT
  5
1D79F
100
AcDbEntity
  8
BEMASS
100
AcDbText
 10
32834.601398
 20
4268.125586
 30
0.0
 40
15.0
  1

  7
ROMANS8
100
AcDbText
  0
TEXT
  5
1D7A0
100
AcDbEntity
  8
STP
100
AcDbText
 10
25122.597942
 20
5424.896917
 30
0.0
 40
3.0
  1

  7
ROMANS8
100
AcDbText
  0
TEXT
  5
1D7A1
100
AcDbEntity
  8
STP
100
AcDbText
 10
15339.560069
 20
1622.81143
 30
0.0
 40
15.0
  1

  7
ROMANS8
100
AcDbText
  0
TEXT
  5
1D7A2
100
AcDbEntity
  8
STP
100
AcDbText
 10
15334.560069
 20
1598.525716
 30
0.0
 40
15.0
  1

  7
ROMANS8
100
AcDbText
  0
TEXT
  5
1D7A3
100
AcDbEntity
  8
STP
100
AcDbText
 10
19582.673739
 20
8.565816
 30
0.0
 40
15.0
  1

  7
ROMANS8
100
AcDbText
  0
TEXT
  5
1D7A4
100
AcDbEntity
  8
STP
100
AcDbText
 10
15306.103743
 20
-1279.984562
 30
0.0
 40
15.0
  1

  7
ROMANS8
100
AcDbText
  0
TEXT
  5
1D7A5
100
AcDbEntity
  8
STP
100
AcDbText
 10
15311.103743
 20
-1255.698848
 30
0.0
 40
15.0
  1

  7
ROMANS8
100
AcDbText
  0
TEXT
  5
1D7A6
100
AcDbEntity
  8
STP
100
AcDbText
 10
17351.173739
 20
665.922959
 30
0.0
 40
3.0
  1

  7
ROMANS8
100
AcDbText
  0
TEXT
  5
1D7A7
100
AcDbEntity
  8
STP
100
AcDbText
 10
19397.560069
 20
2090.31143
 30
0.0
 40
15.0
  1

  7
ROMANS8
100
AcDbText
  0
TEXT
  5
1D7A8
100
AcDbEntity
  8
STP
100
AcDbText
 10
19392.560069
 20
2066.025716
 30
0.0
 40
15.0
  1

  7
ROMANS8
100
AcDbText
  0
TEXT
  5
1D7A9
100
AcDbEntity
  8
STP
100
AcDbText
 10
23640.673739
 20
476.065816
 30
0.0
 40
15.0
  1

  7
ROMANS8
100
AcDbText
  0
TEXT
  5
1D7AA
100
AcDbEntity
  8
STP
100
AcDbText
 10
19364.103743
 20
-812.484562
 30
0.0
 40
15.0
  1

  7
ROMANS8
100
AcDbText
  0
TEXT
  5
1D7AB
100
AcDbEntity
  8
STP
100
AcDbText
 10
19369.103743
 20
-788.198848
 30
0.0
 40
15.0
  1

  7
ROMANS8
100
AcDbText
  0
TEXT
  5
1D7AC
100
AcDbEntity
  8
STP
100
AcDbText
 10
21409.173739
 20
1133.422959
 30
0.0
 40
3.0
  1

  7
ROMANS8
100
AcDbText
  0
TEXT
  5
1D7AD
100
AcDbEntity
  8
BEMASS
100
AcDbText
 10
17592.673739
 20
159.137245
 30
0.0
 40
50.0
  1

  7
ROMANS8
100
AcDbText
  0
TEXT
  5
1D7AE
100
AcDbEntity
  8
BEMASS
100
AcDbText
 10
21129.173739
 20
-958.719898
 30
0.0
 40
3.0
  1

  7
ROMANS8
100
AcDbText
  0
TEXT
  5
1D7AF
100
AcDbEntity
  8
BEMASS
100
AcDbText
 10
24082.673739
 20
668.351531
 30
0.0
 40
15.0
  1

  7
ROMANS8
100
AcDbText
  0
TEXT
  5
1D7B0
100
AcDbEntity
  8
STP
100
AcDbText
 10
19748.060069
 20
2998.31143
 30
0.0
 40
15.0
  1

  7
ROMANS8
100
AcDbText
  0
TEXT
  5
1D7B1
100
AcDbEntity
  8
STP
100
AcDbText
 10
19743.060069
 20
2974.025716
 30
0.0
 40
15.0
  1

  7
ROMANS8
100
AcDbText
  0
TEXT
  5
1D7B2
100
AcDbEntity
  8
STP
100
AcDbText
 10
23991.173739
 20
1384.065816
 30
0.0
 40
15.0
  1

  7
ROMANS8
100
AcDbText
  0
TEXT
  5
1D7B3
100
AcDbEntity
  8
STP
100
AcDbText
 10
19714.603743
 20
95.515438
 30
0.0
 40
15.0
  1

  7
ROMANS8
100
AcDbText
  0
TEXT
  5
1D7B4
100
AcDbEntity
  8
STP
100
AcDbText
 10
19719.603743
 20
119.801152
 30
0.0
 40
15.0
  1

  7
ROMANS8
100
AcDbText
  0
TEXT
  5
1D7B5
100
AcDbEntity
  8
STP
100
AcDbText
 10
21759.673739
 20
2041.422959
 30
0.0
 40
3.0
  1

  7
ROMANS8
100
AcDbText
  0
TEXT
  5
1D7B6
100
AcDbEntity
  8
BEMASS
100
AcDbText
 10
17943.173739
 20
1067.137245
 30
0.0
 40
50.0
  1

  7
ROMANS8
100
AcDbText
  0
TEXT
  5
1D7B7
100
AcDbEntity
  8
BEMASS
100
AcDbText
 10
21479.673739
 20
-50.719898
 30
0.0
 40
3.0
  1

  7
ROMANS8
100
AcDbText
  0
TEXT
  5
1D7B8
100
AcDbEntity
  8
BEMASS
100
AcDbText
 10
24433.173739
 20
1576.351531
 30
0.0
 40
15.0
  1

  7
ROMANS8
100
AcDbText
  0
TEXT
  5
1D7B9
100
AcDbEntity
  8
STP
100
AcDbText
 10
16721.170283
 20
2733.122862
 30
0.0
 40
3.0
  1

  7
ROMANS8
100
AcDbText
  0
TEXT
  5
1D7BA
100
AcDbEntity
  8
STP
100
AcDbText
 10
15336.103743
 20
-1277.484562
 30
0.0
 40
15.0
  1

  7
ROMANS8
100
AcDbText
  0
MTEXT
  5
1D7BB
100
AcDbEntity
  8
TT
100
AcDbMText
 10
17297.934045
 20
-979.388085
 30
0.0
 40
25.0
 41
0.0
 71
     7
 72
     5
  1

  7
ROMANS
  0
MTEXT
  5
1D7BC
100
AcDbEntity
  8
BEMASS
100
AcDbMText
 10
13851.289709
 20
-850.964008
 30
0.0
 40
25.0
 41
0.0
 71
     9
 72
     5
  1
 
  7
ROMANS
  0
MTEXT
  5
1D7BD
100
AcDbEntity
  8
BEMASS
100
AcDbMText
 10
13678.915059
 20
-895.789305
 30
0.0
 40
25.0
 41
0.0
 71
     9
 72
     5
  1

  7
ROMANS
  0
MTEXT
  5
1D7BE
100
AcDbEntity
  8
BEMASS
100
AcDbMText
 10
14253.959591
 20
-530.289989
 30
0.0
 40
25.0
 41
0.0
 71
     7
 72
     5
  1

  7
ROMANS
  0
MTEXT
  5
1D7BF
100
AcDbEntity
  8
BEMASS
100
AcDbMText
 10
12308.613819
 20
-527.562384
 30
0.0
 40
25.0
 41
0.0
 71
     9
 72
     5
  1

  7
ROMANS
  0
MTEXT
  5
1D7C0
100
AcDbEntity
  8
BEMASS
100
AcDbMText
 10
16876.166958
 20
-967.924419
 30
0.0
 40
6.0
 41
0.435431
 71
     1
 72
     5
  1

  7
ILKA2
  0
MTEXT
  5
1D7C1
100
AcDbEntity
  8
BEMASS
100
AcDbMText
 10
16820.07966
 20
-1045.075163
 30
0.0
 40
5.0
 41
0.0
 71
     7
 72
     5
  1

  7
ILKA2
  0
INSERT
  5
1D7C2
100
AcDbEntity
  8
ASHADE
 62
     1
100
AcDbBlockReference
  2
AVE_RENDER
 10
16458.637456
 20
-1449.925255
 30
0.0
1001
AVE_RENDER
1002
{
1070
     6
1000
Pref
1070
    30
1070
    20
1070
     1
1070
     0
1000

1070
    10
1070
     1
1070
    30
1040
1.0
1070
     1
1040
0.3
1040
0.7
1040
0.0
1040
10.0
1010
-1.0
1020
-1.0
1030
-1.0
1040
0.3
1070
    49
1070
     0
1070
     0
1010
1.0
1020
1.0
1030
1.0
1040
45.0
1070
     1
1070
     0
1000
WCS
1040
0.0
1002
}
  0
INSERT
  5
1D7C3
100
AcDbEntity
  8
ASHADE
 62
     3
100
AcDbBlockReference
  2
AVE_RENDER
 10
16458.637456
 20
-1449.925255
 30
0.0
1001
AVE_RENDER
1002
{
1070
     0
1000
Full Opt
1070
     0
1070
     1
1070
     1
1070
     1
1070
     0
1070
     0
1070
     0
1070
     1
1070
     1
1040
0.0001
1040
0.0001
1002
}
  0
INSERT
  5
1D7C4
100
AcDbEntity
  8
ASHADE
 62
     4
100
AcDbBlockReference
  2
AVE_RENDER
 10
16458.637456
 20
-1449.925255
 30
0.0
1001
AVE_RENDER
1002
{
1070
     0
1000
Quick Opt
1070
     0
1070
     1
1070
     1
1070
     1
1070
     0
1070
     0
1070
     1
1002
}
  0
INSERT
  5
1D7C5
100
AcDbEntity
  8
ASHADE
 62
     5
100
AcDbBlockReference
  2
AVE_RENDER
 10
16458.637456
 20
-1449.925255
 30
0.0
1001
AVE_RENDER
1002
{
1070
     1
1000
Scanl Opt
1070
     2
1070
     0
1070
     2
1040
2.0
1040
4.0
1070
     0
1070
     1
1070
     0
1040
0.03
1002
}
  0
INSERT
  5
1D7C6
100
AcDbEntity
  8
ASHADE
 62
     6
100
AcDbBlockReference
  2
AVE_RENDER
 10
16458.637456
 20
-1449.925255
 30
0.0
1001
AVE_RENDER
1002
{
1070
     2
1000
Raytr Opt
1070
     2
1070
     0
1070
     2
1040
2.0
1040
4.0
1070
     0
1070
     1
1070
     1
1040
0.03
1070
     3
1040
0.03
1002
}
  0
INSERT
  5
1D7C7
100
AcDbEntity
  8
ASHADE
 62
     7
100
AcDbBlockReference
  2
AVE_RENDER
 10
16458.637456
 20
-1449.925255
 30
0.0
1001
AVE_RENDER
1002
{
1070
     0
1000
RFile Opt
1070
     5
1070
   640
1070
   480
1070
 10000
1070
     3
1070
    32
1070
    24
1070
     0
1070
     0
1070
     0
1070
     1
1070
     0
1070
     0
1070
     0
1002
}
  0
INSERT
  5
1D7C8
100
AcDbEntity
  8
ASHADE
 62
     8
100
AcDbBlockReference
  2
AVE_RENDER
 10
16458.637456
 20
-1449.925255
 30
0.0
1001
AVE_RENDER
1002
{
1070
     0
1000
Fog Opt
1070
     0
1070
     0
1040
0.0
1040
1.0
1040
0.0
1040
1.0
1010
0.5
1020
0.5
1030
0.5
1002
}
  0
INSERT
  5
1D7C9
100
AcDbEntity
  8
ASHADE
 62
     9
100
AcDbBlockReference
  2
AVE_RENDER
 10
16458.637456
 20
-1449.925255
 30
0.0
1001
AVE_RENDER
1002
{
1070
     0
1000
BG Opt
1070
     0
1070
     1
1010
0.0
1020
0.0
1030
0.0
1010
1.0
1020
0.0
1030
0.0
1010
0.0
1020
1.0
1030
0.0
1010
0.0
1020
0.0
1030
1.0
1040
0.5
1040
0.33
1040
0.0
1000

1070
     1
1000

1070
     1
1070
     1
1040
1.0
1040
1.0
1040
0.0
1040
0.0
1070
     0
1002
}
  0
INSERT
  5
1D7CA
100
AcDbEntity
  8
ASHADE
 62
     1
100
AcDbBlockReference
  2
AVE_GLOBAL
 10
16458.637456
 20
-1449.925255
 30
0.0
1001
AVE_MATERIAL
1002
{
1000
*GLOBAL*
1000
1
1000
Globales Material.
1002
{
1002
}
1002
{
1070
    63
1002
{
1002
{
1010
-1.0
1020
-1.0
1030
-1.0
1002
}
1040
0.1
1000

1040
0.0
1002
{
1002
}
1040
0.0
1002
{
1002
}
1040
0.0
1002
}
1002
{
1002
{
1010
-1.0
1020
-1.0
1030
-1.0
1002
}
1040
0.7
1000

1040
0.0
1002
{
1002
}
1040
0.0
1002
{
1002
}
1040
0.0
1002
}
1002
{
1002
{
1010
-1.0
1020
-1.0
1030
-1.0
1002
}
1040
0.2
1000

1040
0.0
1002
{
1002
}
1040
0.0
1002
{
1002
}
1040
0.0
1002
}
1002
{
1070
     0
1002
{
1070
     1
1002
{
1040
1.0
1040
1.0
1000

1040
0.0
1002
{
1002
}
1040
0.0
1002
{
1002
}
1040
0.0
1002
}
1002
}
1040
1.0
1040
0.0
1040
0.0
1002
}
1002
{
1040
1.0
1040
1.0
1000

1040
0.0
1002
{
1002
}
1040
0.0
1002
{
1002
}
1040
0.0
1002
}
1002
{
1040
0.5
1040
1.0
1000

1040
0.0
1002
{
1002
}
1040
0.0
1002
{
1002
}
1040
0.0
1002
}
1002
{
1070
     0
1040
0.0
1002
{
1002
}
1040
1.0
1002
{
1002
}
1040
0.0
1002
}
1002
{
1040
0.0
1002
{
1002
{
1010
0.0
1020
0.0
1030
0.0
1002
}
1040
1.0
1000

1040
0.0
1002
{
1002
}
1040
0.0
1002
{
1002
}
1040
0.0
1002
}
1002
}
1002
{
1002
{
1070
     1
1002
{
1040
0.0
1040
1.0
1000

1040
0.0
1002
{
1002
}
1040
0.0
1002
{
1002
}
1040
0.0
1002
}
1002
}
1040
0.0
1002
{
1002
}
1010
1.0
1020
0.0
1030
0.0
1010
0.0
1020
1.0
1030
0.0
1010
0.0
1020
0.0
1030
1.0
1070
     0
1002
}
1002
{
1002
{
1040
1.0
1040
1.0
1002
{
1070
     1
1002
{
1040
1.0
1040
1.0
1000

1040
0.0
1002
{
1002
}
1040
0.0
1002
{
1002
}
1040
0.0
1002
}
1002
}
1002
}
1070
     0
1040
0.0
1002
{
1002
}
1002
}
1002
{
1002
}
1002
}
1002
{
1071
        3
1070
     3
1070
     0
1002
{
1070
     2
1070
     0
1070
     0
1040
0.0
1002
}
1070
     0
1070
     2
1002
{
1002
}
1002
}
1002
{
1040
8030.0
1040
190.300003
1040
0.305
1040
228.0
1040
545.0
1040
14.0
1040
17.4
1040
0.456
1002
}
1002
}
  0
MTEXT
  5
1D7CB
100
AcDbEntity
  8
BEMASS
100
AcDbMText
 10
19954.637456
 20
2083.074745
 30
0.0
 40
20.0
 41
0.0
 71
     7
 72
     5
  1
\P
  7
ROMANS
  0
MTEXT
  5
1D7CC
100
AcDbEntity
  8
BEMASS
100
AcDbMText
 10
19298.137456
 20
1497.074745
 30
0.0
 40
20.0
 41
0.0
 71
     9
 72
     5
  1
\P
  7
ROMANS
  0
TEXT
  5
1D7CD
100
AcDbEntity
  8
STP
100
AcDbText
 10
26998.523786
 20
2764.24893
 30
0.0
 40
15.0
  1

  7
ROMANS8
100
AcDbText
  0
TEXT
  5
1D7CE
100
AcDbEntity
  8
STP
100
AcDbText
 10
26993.523786
 20
2739.963216
 30
0.0
 40
15.0
  1

  7
ROMANS8
100
AcDbText
  0
TEXT
  5
1D7CF
100
AcDbEntity
  8
STP
100
AcDbText
 10
31241.637456
 20
1150.003316
 30
0.0
 40
15.0
  1

  7
ROMANS8
100
AcDbText
  0
TEXT
  5
1D7D0
100
AcDbEntity
  8
STP
100
AcDbText
 10
26965.067459
 20
-138.547062
 30
0.0
 40
15.0
  1

  7
ROMANS8
100
AcDbText
  0
TEXT
  5
1D7D1
100
AcDbEntity
  8
STP
100
AcDbText
 10
26970.067459
 20
-114.261348
 30
0.0
 40
15.0
  1

  7
ROMANS8
100
AcDbText
  0
TEXT
  5
1D7D2
100
AcDbEntity
  8
STP
100
AcDbText
 10
29010.137456
 20
1807.360459
 30
0.0
 40
3.0
  1

  7
ROMANS8
100
AcDbText
  0
TEXT
  5
1D7D3
100
AcDbEntity
  8
STP
100
AcDbText
 10
37707.637456
 20
-188.425255
 30
0.0
 40
15.0
  1

  7
ROMANS8
100
AcDbText
  0
TEXT
  5
1D7D4
100
AcDbEntity
  8
STP
100
AcDbText
 10
37707.637456
 20
2661.574745
 30
0.0
 40
15.0
  1

  7
ROMANS8
100
AcDbText
  0
TEXT
  5
1D7D5
100
AcDbEntity
  8
STP
100
AcDbText
 10
42727.637456
 20
6334.074745
 30
0.0
 40
15.0
  1

  7
ROMANS8
100
AcDbText
  0
TEXT
  5
1D7D6
100
AcDbEntity
  8
STP
100
AcDbText
 10
42453.137456
 20
6334.074745
 30
0.0
 40
15.0
  1

  7
ROMANS8
100
AcDbText
  0
TEXT
  5
1D7D7
100
AcDbEntity
  8
STP
100
AcDbText
 10
29145.449956
 20
-97.050255
 30
0.0
 40
15.375
  1

  7
ROMANS8
100
AcDbText
  0
TEXT
  5
1D7D8
100
AcDbEntity
  8
STP
100
AcDbText
 10
29145.449956
 20
-117.005612
 30
0.0
 40
15.375
  1

  7
ROMANS8
100
AcDbText
  0
TEXT
  5
1D7D9
100
AcDbEntity
  8
STP
100
AcDbText
 10
29145.449956
 20
-137.148469
 30
0.0
 40
15.375
  1

  7
ROMANS8
100
AcDbText
  0
TEXT
  5
1D7DA
100
AcDbEntity
  8
STP
100
AcDbText
 10
29145.449956
 20
-157.166327
 30
0.0
 40
15.375
  1

  7
ROMANS8
100
AcDbText
  0
TEXT
  5
1D7DB
100
AcDbEntity
  8
STP
100
AcDbText
 10
29145.449956
 20
-177.121684
 30
0.0
 40
15.375
  1

  7
ROMANS8
100
AcDbText
  0
TEXT
  5
1D7DC
100
AcDbEntity
  8
STP
100
AcDbText
 10
33420.523786
 20
2748.74893
 30
0.0
 40
15.0
  1

  7
ROMANS8
100
AcDbText
  0
TEXT
  5
1D7DD
100
AcDbEntity
  8
STP
100
AcDbText
 10
33415.523786
 20
2724.463216
 30
0.0
 40
15.0
  1

  7
ROMANS8
100
AcDbText
  0
TEXT
  5
1D7DE
100
AcDbEntity
  8
STP
100
AcDbText
 10
37663.637456
 20
1134.503316
 30
0.0
 40
15.0
  1

  7
ROMANS8
100
AcDbText
  0
TEXT
  5
1D7DF
100
AcDbEntity
  8
STP
100
AcDbText
 10
33387.067459
 20
-154.047062
 30
0.0
 40
15.0
  1

  7
ROMANS8
100
AcDbText
  0
TEXT
  5
1D7E0
100
AcDbEntity
  8
STP
100
AcDbText
 10
33392.067459
 20
-129.761348
 30
0.0
 40
15.0
  1

  7
ROMANS8
100
AcDbText
  0
TEXT
  5
1D7E1
100
AcDbEntity
  8
STP
100
AcDbText
 10
35432.137456
 20
1791.860459
 30
0.0
 40
3.0
  1

  7
ROMANS8
100
AcDbText
  0
TEXT
  5
1D7E2
100
AcDbEntity
  8
BEMASS
100
AcDbText
 10
31615.637456
 20
817.574745
 30
0.0
 40
50.0
  1

  7
ROMANS8
100
AcDbText
  0
TEXT
  5
1D7E3
100
AcDbEntity
  8
BEMASS
100
AcDbText
 10
35152.137456
 20
-300.282398
 30
0.0
 40
3.0
  1

  7
ROMANS8
100
AcDbText
  0
TEXT
  5
1D7E4
100
AcDbEntity
  8
BEMASS
100
AcDbText
 10
38105.637456
 20
1326.789031
 30
0.0
 40
15.0
  1

  7
ROMANS8
100
AcDbText
  0
TEXT
  5
1D7E5
100
AcDbEntity
  8
STP
100
AcDbText
 10
30393.633999
 20
2483.560362
 30
0.0
 40
3.0
  1

  7
ROMANS8
100
AcDbText
  0
TEXT
  5
1D7E6
100
AcDbEntity
  8
STP
100
AcDbText
 10
29825.512456
 20
-179.300255
 30
0.0
 40
15.375
  1

  7
ROMANS8
100
AcDbText
  0
TEXT
  5
1D7E7
100
AcDbEntity
  8
STP
100
AcDbText
 10
33628.023786
 20
5242.74893
 30
0.0
 40
15.0
  1

  7
ROMANS8
100
AcDbText
  0
TEXT
  5
1D7E8
100
AcDbEntity
  8
STP
100
AcDbText
 10
33623.023786
 20
5218.463216
 30
0.0
 40
15.0
  1

  7
ROMANS8
100
AcDbText
  0
TEXT
  5
1D7E9
100
AcDbEntity
  8
STP
100
AcDbText
 10
37871.137456
 20
3628.503316
 30
0.0
 40
15.0
  1

  7
ROMANS8
100
AcDbText
  0
TEXT
  5
1D7EA
100
AcDbEntity
  8
STP
100
AcDbText
 10
33594.567459
 20
2339.952938
 30
0.0
 40
15.0
  1

  7
ROMANS8
100
AcDbText
  0
TEXT
  5
1D7EB
100
AcDbEntity
  8
STP
100
AcDbText
 10
33599.567459
 20
2364.238652
 30
0.0
 40
15.0
  1

  7
ROMANS8
100
AcDbText
  0
TEXT
  5
1D7EC
100
AcDbEntity
  8
STP
100
AcDbText
 10
35639.637456
 20
4285.860459
 30
0.0
 40
3.0
  1

  7
ROMANS8
100
AcDbText
  0
TEXT
  5
1D7ED
100
AcDbEntity
  8
BEMASS
100
AcDbText
 10
31823.137456
 20
3311.574745
 30
0.0
 40
50.0
  1

  7
ROMANS8
100
AcDbText
  0
TEXT
  5
1D7EE
100
AcDbEntity
  8
BEMASS
100
AcDbText
 10
35359.637456
 20
2193.717602
 30
0.0
 40
3.0
  1

  7
ROMANS8
100
AcDbText
  0
TEXT
  5
1D7EF
100
AcDbEntity
  8
BEMASS
100
AcDbText
 10
38313.137456
 20
3820.789031
 30
0.0
 40
15.0
  1

  7
ROMANS8
100
AcDbText
  0
TEXT
  5
1D7F0
100
AcDbEntity
  8
STP
100
AcDbText
 10
30601.133999
 20
4977.560362
 30
0.0
 40
3.0
  1

  7
ROMANS8
100
AcDbText
  0
TEXT
  5
1D7F1
100
AcDbEntity
  8
STP
100
AcDbText
 10
40595.023786
 20
8004.74893
 30
0.0
 40
15.0
  1

  7
ROMANS8
100
AcDbText
  0
TEXT
  5
1D7F2
100
AcDbEntity
  8
STP
100
AcDbText
 10
40590.023786
 20
7980.463216
 30
0.0
 40
15.0
  1

  7
ROMANS8
100
AcDbText
  0
TEXT
  5
1D7F3
100
AcDbEntity
  8
STP
100
AcDbText
 10
44838.137456
 20
6390.503316
 30
0.0
 40
15.0
  1

  7
ROMANS8
100
AcDbText
  0
TEXT
  5
1D7F4
100
AcDbEntity
  8
STP
100
AcDbText
 10
40561.567459
 20
5101.952938
 30
0.0
 40
15.0
  1

  7
ROMANS8
100
AcDbText
  0
TEXT
  5
1D7F5
100
AcDbEntity
  8
STP
100
AcDbText
 10
40566.567459
 20
5126.238652
 30
0.0
 40
15.0
  1

  7
ROMANS8
100
AcDbText
  0
TEXT
  5
1D7F6
100
AcDbEntity
  8
STP
100
AcDbText
 10
42606.637456
 20
7047.860459
 30
0.0
 40
3.0
  1

  7
ROMANS8
100
AcDbText
  0
TEXT
  5
1D7F7
100
AcDbEntity
  8
STP
100
AcDbText
 10
51304.137456
 20
5052.074745
 30
0.0
 40
15.0
  1

  7
ROMANS8
100
AcDbText
  0
TEXT
  5
1D7F8
100
AcDbEntity
  8
STP
100
AcDbText
 10
51304.137456
 20
7902.074745
 30
0.0
 40
15.0
  1

  7
ROMANS8
100
AcDbText
  0
TEXT
  5
1D7F9
100
AcDbEntity
  8
STP
100
AcDbText
 10
56324.137456
 20
11574.574745
 30
0.0
 40
15.0
  1

  7
ROMANS8
100
AcDbText
  0
TEXT
  5
1D7FA
100
AcDbEntity
  8
STP
100
AcDbText
 10
56049.637456
 20
11574.574745
 30
0.0
 40
15.0
  1

  7
ROMANS8
100
AcDbText
  0
TEXT
  5
1D7FB
100
AcDbEntity
  8
STP
100
AcDbText
 10
47017.023786
 20
7989.24893
 30
0.0
 40
15.0
  1

  7
ROMANS8
100
AcDbText
  0
TEXT
  5
1D7FC
100
AcDbEntity
  8
STP
100
AcDbText
 10
47012.023786
 20
7964.963216
 30
0.0
 40
15.0
  1

  7
ROMANS8
100
AcDbText
  0
TEXT
  5
1D7FD
100
AcDbEntity
  8
STP
100
AcDbText
 10
51260.137456
 20
6375.003316
 30
0.0
 40
15.0
  1

  7
ROMANS8
100
AcDbText
  0
TEXT
  5
1D7FE
100
AcDbEntity
  8
STP
100
AcDbText
 10
46983.567459
 20
5086.452938
 30
0.0
 40
15.0
  1

  7
ROMANS8
100
AcDbText
  0
TEXT
  5
1D7FF
100
AcDbEntity
  8
STP
100
AcDbText
 10
46988.567459
 20
5110.738652
 30
0.0
 40
15.0
  1

  7
ROMANS8
100
AcDbText
  0
TEXT
  5
1D800
100
AcDbEntity
  8
STP
100
AcDbText
 10
49028.637456
 20
7032.360459
 30
0.0
 40
3.0
  1

  7
ROMANS8
100
AcDbText
  0
TEXT
  5
1D801
100
AcDbEntity
  8
BEMASS
100
AcDbText
 10
45212.137456
 20
6058.074745
 30
0.0
 40
50.0
  1

  7
ROMANS8
100
AcDbText
  0
TEXT
  5
1D802
100
AcDbEntity
  8
BEMASS
100
AcDbText
 10
48748.637456
 20
4940.217602
 30
0.0
 40
3.0
  1

  7
ROMANS8
100
AcDbText
  0
TEXT
  5
1D803
100
AcDbEntity
  8
BEMASS
100
AcDbText
 10
51702.137456
 20
6567.289031
 30
0.0
 40
15.0
  1

  7
ROMANS8
100
AcDbText
  0
TEXT
  5
1D804
100
AcDbEntity
  8
STP
100
AcDbText
 10
43990.133999
 20
7724.060362
 30
0.0
 40
3.0
  1

  7
ROMANS8
100
AcDbText
  0
TEXT
  5
1D805
100
AcDbEntity
  8
STP
100
AcDbText
 10
40802.523786
 20
6895.24893
 30
0.0
 40
15.0
  1

  7
ROMANS8
100
AcDbText
  0
TEXT
  5
1D806
100
AcDbEntity
  8
STP
100
AcDbText
 10
40797.523786
 20
6870.963216
 30
0.0
 40
15.0
  1

  7
ROMANS8
100
AcDbText
  0
TEXT
  5
1D807
100
AcDbEntity
  8
STP
100
AcDbText
 10
45045.637456
 20
5281.003316
 30
0.0
 40
15.0
  1

  7
ROMANS8
100
AcDbText
  0
TEXT
  5
1D808
100
AcDbEntity
  8
STP
100
AcDbText
 10
40769.067459
 20
3992.452938
 30
0.0
 40
15.0
  1

  7
ROMANS8
100
AcDbText
  0
TEXT
  5
1D809
100
AcDbEntity
  8
STP
100
AcDbText
 10
40774.067459
 20
4016.738652
 30
0.0
 40
15.0
  1

  7
ROMANS8
100
AcDbText
  0
TEXT
  5
1D80A
100
AcDbEntity
  8
BEMASS
100
AcDbText
 10
37178.249189
 20
11960.587476
 30
0.0
 40
20.0
  1

  7
ROMANS8
100
AcDbText
  0
TEXT
  5
1D80B
100
AcDbEntity
  8
STP
100
AcDbText
 10
40968.023786
 20
11435.24893
 30
0.0
 40
15.0
  1

  7
ROMANS8
100
AcDbText
  0
TEXT
  5
1D80C
100
AcDbEntity
  8
STP
100
AcDbText
 10
40963.023786
 20
11410.963216
 30
0.0
 40
15.0
  1

  7
ROMANS8
100
AcDbText
  0
TEXT
  5
1D80D
100
AcDbEntity
  8
STP
100
AcDbText
 10
45211.137456
 20
9821.003316
 30
0.0
 40
15.0
  1

  7
ROMANS8
100
AcDbText
  0
TEXT
  5
1D80E
100
AcDbEntity
  8
STP
100
AcDbText
 10
40934.567459
 20
8532.452938
 30
0.0
 40
15.0
  1

  7
ROMANS8
100
AcDbText
  0
TEXT
  5
1D80F
100
AcDbEntity
  8
STP
100
AcDbText
 10
40939.567459
 20
8556.738652
 30
0.0
 40
15.0
  1

  7
ROMANS8
100
AcDbText
  0
TEXT
  5
1D810
100
AcDbEntity
  8
STP
100
AcDbText
 10
45046.023786
 20
11438.24893
 30
0.0
 40
15.0
  1

  7
ROMANS8
100
AcDbText
  0
TEXT
  5
1D811
100
AcDbEntity
  8
STP
100
AcDbText
 10
45041.023786
 20
11413.963216
 30
0.0
 40
15.0
  1

  7
ROMANS8
100
AcDbText
  0
TEXT
  5
1D812
100
AcDbEntity
  8
STP
100
AcDbText
 10
49289.137456
 20
9824.003316
 30
0.0
 40
15.0
  1

  7
ROMANS8
100
AcDbText
  0
TEXT
  5
1D813
100
AcDbEntity
  8
STP
100
AcDbText
 10
45012.567459
 20
8535.452938
 30
0.0
 40
15.0
  1

  7
ROMANS8
100
AcDbText
  0
TEXT
  5
1D814
100
AcDbEntity
  8
STP
100
AcDbText
 10
45017.567459
 20
8559.738652
 30
0.0
 40
15.0
  1

  7
ROMANS8
100
AcDbText
  0
TEXT
  5
1D815
100
AcDbEntity
  8
STP
100
AcDbText
 10
47057.637456
 20
10481.360459
 30
0.0
 40
3.0
  1

  7
ROMANS8
100
AcDbText
  0
TEXT
  5
1D816
100
AcDbEntity
  8
STP
100
AcDbText
 10
49104.023786
 20
11905.74893
 30
0.0
 40
15.0
  1

  7
ROMANS8
100
AcDbText
  0
TEXT
  5
1D817
100
AcDbEntity
  8
STP
100
AcDbText
 10
49099.023786
 20
11881.463216
 30
0.0
 40
15.0
  1

  7
ROMANS8
100
AcDbText
  0
TEXT
  5
1D818
100
AcDbEntity
  8
STP
100
AcDbText
 10
53347.137456
 20
10291.503316
 30
0.0
 40
15.0
  1

  7
ROMANS8
100
AcDbText
  0
TEXT
  5
1D819
100
AcDbEntity
  8
STP
100
AcDbText
 10
49070.567459
 20
9002.952938
 30
0.0
 40
15.0
  1

  7
ROMANS8
100
AcDbText
  0
TEXT
  5
1D81A
100
AcDbEntity
  8
STP
100
AcDbText
 10
49075.567459
 20
9027.238652
 30
0.0
 40
15.0
  1

  7
ROMANS8
100
AcDbText
  0
TEXT
  5
1D81B
100
AcDbEntity
  8
STP
100
AcDbText
 10
51115.637456
 20
10948.860459
 30
0.0
 40
3.0
  1

  7
ROMANS8
100
AcDbText
  0
TEXT
  5
1D81C
100
AcDbEntity
  8
BEMASS
100
AcDbText
 10
47299.137456
 20
9974.574745
 30
0.0
 40
50.0
  1

  7
ROMANS8
100
AcDbText
  0
TEXT
  5
1D81D
100
AcDbEntity
  8
BEMASS
100
AcDbText
 10
50835.637456
 20
8856.717602
 30
0.0
 40
3.0
  1

  7
ROMANS8
100
AcDbText
  0
TEXT
  5
1D81E
100
AcDbEntity
  8
BEMASS
100
AcDbText
 10
53789.137456
 20
10483.789031
 30
0.0
 40
15.0
  1

  7
ROMANS8
100
AcDbText
  0
TEXT
  5
1D81F
100
AcDbEntity
  8
BEMASS
100
AcDbText
 10
37551.249189
 20
11160.587476
 30
0.0
 40
20.0
  1

  7
ROMANS8
100
AcDbText
  0
INSERT
  5
1D820
100
AcDbEntity
  8
ASHADE
 62
     1
100
AcDbBlockReference
  2
AVE_RENDER
 10
42285.137456
 20
11900.074745
 30
0.0
1001
AVE_RENDER
1002
{
1070
     2
1000
Pref
1070
    30
1070
    20
1070
     0
1070
     0
1000

1070
    10
1070
     0
1070
    30
1040
1.0
1070
     1
1040
0.3
1040
0.7
1040
0.0
1040
10.0
1010
-1.0
1020
-1.0
1030
-1.0
1040
0.3
1070
    49
1002
}
  0
INSERT
  5
1D821
100
AcDbEntity
  8
ASHADE
 62
     3
100
AcDbBlockReference
  2
AVE_RENDER
 10
42285.137456
 20
11900.074745
 30
0.0
1001
AVE_RENDER
1002
{
1070
     0
1000
Full Opt
1070
     0
1070
     1
1070
     1
1070
     1
1070
     0
1070
     0
1070
     0
1070
     1
1070
     1
1040
0.0001
1040
0.0001
1002
}
  0
INSERT
  5
1D822
100
AcDbEntity
  8
ASHADE
 62
     4
100
AcDbBlockReference
  2
AVE_RENDER
 10
42285.137456
 20
11900.074745
 30
0.0
1001
AVE_RENDER
1002
{
1070
     0
1000
Quick Opt
1070
     0
1070
     1
1070
     1
1070
     1
1070
     0
1070
     0
1070
     1
1002
}
  0
TEXT
  5
1D823
100
AcDbEntity
  8
STP
100
AcDbText
 10
19227.181825
 20
3218.09266
 30
0.0
 40
30.0
  1
 
  7
ROMANS8
100
AcDbText
  0
TEXT
  5
1D824
100
AcDbEntity
  8
STP
100
AcDbText
 10
19227.181825
 20
3169.521231
 30
0.0
 40
30.0
  1
 
  7
ROMANS8
100
AcDbText
  0
TEXT
  5
1D825
100
AcDbEntity
  8
STP
100
AcDbText
 10
19227.181825
 20
3120.949803
 30
0.0
 40
30.0
  1
 
  7
ROMANS8
100
AcDbText
  0
TEXT
  5
1D826
100
AcDbEntity
  8
STP
100
AcDbText
 10
22537.181825
 20
5178.09266
 30
0.0
 40
30.0
  1
 
  7
ROMANS8
100
AcDbText
  0
TEXT
  5
1D827
100
AcDbEntity
  8
STP
100
AcDbText
 10
22537.181825
 20
5129.521231
 30
0.0
 40
30.0
  1
 
  7
ROMANS8
100
AcDbText
  0
TEXT
  5
1D828
100
AcDbEntity
  8
STP
100
AcDbText
 10
22537.181825
 20
5080.949803
 30
0.0
 40
30.0
  1
 
  7
ROMANS8
100
AcDbText
  0
TEXT
  5
1D829
100
AcDbEntity
  8
STP
100
AcDbText
 10
19236.292946
 20
8302.63728
 30
0.0
 40
30.0
  1
 
  7
ROMANS8
100
AcDbText
  0
TEXT
  5
1D82A
100
AcDbEntity
  8
STP
100
AcDbText
 10
19236.292946
 20
8254.065851
 30
0.0
 40
30.0
  1
 
  7
ROMANS8
100
AcDbText
  0
TEXT
  5
1D82B
100
AcDbEntity
  8
STP
100
AcDbText
 10
19236.292946
 20
8205.494423
 30
0.0
 40
30.0
  1
 
  7
ROMANS8
100
AcDbText
  0
TEXT
  5
1D82C
100
AcDbEntity
  8
STP
100
AcDbText
 10
19981.181825
 20
3479.664089
 30
0.0
 40
15.0
  1

  7
ROMANS8
100
AcDbText
  0
TEXT
  5
1D82D
100
AcDbEntity
  8
BEMASS
100
AcDbText
 10
12320.898884
 20
1441.213923
 30
0.0
 40
30.0
  1

  7
ROMANS8
100
AcDbText
  0
TEXT
  5
1D82E
100
AcDbEntity
  8
BEMASS
100
AcDbText
 10
32224.637456
 20
6677.074745
 30
0.0
 40
30.0
  1

  7
ROMANS8
100
AcDbText
  0
TEXT
  5
1D82F
100
AcDbEntity
  8
BEMASS
100
AcDbText
 10
12660.898884
 20
1441.213923
 30
0.0
 40
30.0
  1

  7
ROMANS8
100
AcDbText
  0
TEXT
  5
1D830
100
AcDbEntity
  8
BEMASS
100
AcDbText
 10
12460.898884
 20
1441.213923
 30
0.0
 40
30.0
  1

  7
ROMANS8
100
AcDbText
  0
TEXT
  5
1D831
100
AcDbEntity
  8
STP
100
AcDbText
 10
26159.36277
 20
8932.179682
 30
0.0
 40
3.075
  1

  7
ROMANS8
100
AcDbText
  0
TEXT
  5
1D832
100
AcDbEntity
  8
STP
100
AcDbText
 10
26159.36277
 20
8928.188611
 30
0.0
 40
3.075
  1

  7
ROMANS8
100
AcDbText
  0
TEXT
  5
1D833
100
AcDbEntity
  8
STP
100
AcDbText
 10
26159.36277
 20
8924.160039
 30
0.0
 40
3.075
  1

  7
ROMANS8
100
AcDbText
  0
TEXT
  5
1D834
100
AcDbEntity
  8
STP
100
AcDbText
 10
26159.36277
 20
8920.156468
 30
0.0
 40
3.075
  1

  7
ROMANS8
100
AcDbText
  0
TEXT
  5
1D835
100
AcDbEntity
  8
STP
100
AcDbText
 10
26159.36277
 20
8916.165396
 30
0.0
 40
3.075
  1

  7
ROMANS8
100
AcDbText
  0
TEXT
  5
1D836
100
AcDbEntity
  8
STP
100
AcDbText
 10
24347.195283
 20
6236.138286
 30
0.0
 40
3.0
  1

  7
ROMANS8
100
AcDbText
  0
TEXT
  5
1D837
100
AcDbEntity
  8
STP
100
AcDbText
 10
24347.195283
 20
6230.281143
 30
0.0
 40
3.0
  1

  7
ROMANS8
100
AcDbText
  0
TEXT
  5
1D838
100
AcDbEntity
  8
STP
100
AcDbText
 10
26287.36277
 20
11782.179682
 30
0.0
 40
3.075
  1

  7
ROMANS8
100
AcDbText
  0
TEXT
  5
1D839
100
AcDbEntity
  8
STP
100
AcDbText
 10
26287.36277
 20
11778.188611
 30
0.0
 40
3.075
  1

  7
ROMANS8
100
AcDbText
  0
TEXT
  5
1D83A
100
AcDbEntity
  8
STP
100
AcDbText
 10
26287.36277
 20
11774.160039
 30
0.0
 40
3.075
  1

  7
ROMANS8
100
AcDbText
  0
TEXT
  5
1D83B
100
AcDbEntity
  8
STP
100
AcDbText
 10
26287.36277
 20
11770.156468
 30
0.0
 40
3.075
  1

  7
ROMANS8
100
AcDbText
  0
TEXT
  5
1D83C
100
AcDbEntity
  8
STP
100
AcDbText
 10
26287.36277
 20
11766.165396
 30
0.0
 40
3.075
  1

  7
ROMANS8
100
AcDbText
  0
TEXT
  5
1D83D
100
AcDbEntity
  8
STP
100
AcDbText
 10
24475.195283
 20
9086.138286
 30
0.0
 40
3.0
  1

  7
ROMANS8
100
AcDbText
  0
TEXT
  5
1D83E
100
AcDbEntity
  8
STP
100
AcDbText
 10
24475.195283
 20
9080.281143
 30
0.0
 40
3.0
  1

  7
ROMANS8
100
AcDbText
  0
TEXT
  5
1D83F
100
AcDbEntity
  8
STP
100
AcDbText
 10
27481.647652
 20
8442.515184
 30
0.0
 40
15.0
  1

  7
ROMANS8
100
AcDbText
  0
TEXT
  5
1D840
100
AcDbEntity
  8
STP
100
AcDbText
 10
27581.647652
 20
8442.515184
 30
0.0
 40
15.0
  1

  7
ROMANS8
100
AcDbText
  0
TEXT
  5
1D841
100
AcDbEntity
  8
STP
100
AcDbText
 10
27381.647652
 20
8442.515184
 30
0.0
 40
15.0
  1

  7
ROMANS8
100
AcDbText
  0
TEXT
  5
1D842
100
AcDbEntity
  8
STP
100
AcDbText
 10
27381.647652
 20
8412.515184
 30
0.0
 40
15.0
  1

  7
ROMANS8
100
AcDbText
  0
TEXT
  5
1D843
100
AcDbEntity
  8
STP
100
AcDbText
 10
27481.647652
 20
8412.515184
 30
0.0
 40
15.0
  1

  7
ROMANS8
100
AcDbText
  0
TEXT
  5
1D844
100
AcDbEntity
  8
STP
100
AcDbText
 10
27581.647652
 20
8412.515184
 30
0.0
 40
15.0
  1

  7
ROMANS8
100
AcDbText
  0
TEXT
  5
1D845
100
AcDbEntity
  8
STP
100
AcDbText
 10
26257.36277
 20
12927.179682
 30
0.0
 40
3.075
  1

  7
ROMANS8
100
AcDbText
  0
TEXT
  5
1D846
100
AcDbEntity
  8
STP
100
AcDbText
 10
26257.36277
 20
12923.188611
 30
0.0
 40
3.075
  1

  7
ROMANS8
100
AcDbText
  0
TEXT
  5
1D847
100
AcDbEntity
  8
STP
100
AcDbText
 10
26257.36277
 20
12919.160039
 30
0.0
 40
3.075
  1

  7
ROMANS8
100
AcDbText
  0
TEXT
  5
1D848
100
AcDbEntity
  8
STP
100
AcDbText
 10
26257.36277
 20
12915.156468
 30
0.0
 40
3.075
  1

  7
ROMANS8
100
AcDbText
  0
TEXT
  5
1D849
100
AcDbEntity
  8
STP
100
AcDbText
 10
26257.36277
 20
12911.165396
 30
0.0
 40
3.075
  1

  7
ROMANS8
100
AcDbText
  0
TEXT
  5
1D84A
100
AcDbEntity
  8
STP
100
AcDbText
 10
24445.195283
 20
10231.138286
 30
0.0
 40
3.0
  1

  7
ROMANS8
100
AcDbText
  0
TEXT
  5
1D84B
100
AcDbEntity
  8
STP
100
AcDbText
 10
24445.195283
 20
10225.281143
 30
0.0
 40
3.0
  1

  7
ROMANS8
100
AcDbText
  0
MTEXT
  5
1D84C
100
AcDbEntity
  8
BEMASS
100
AcDbMText
 10
15624.884484
 20
5747.398603
 30
0.0
 40
25.0
 41
0.0
 71
     7
 72
     5
  1

  7
ROMANS
  0
MTEXT
  5
1D84D
100
AcDbEntity
  8
BEMASS
100
AcDbMText
 10
15852.060178
 20
5747.398603
 30
0.0
 40
25.0
 41
0.0
 71
     9
 72
     5
  1

  7
ROMANS
  0
TEXT
  5
1D84E
100
AcDbEntity
  8
STP
100
AcDbText
 10
24425.390664
 20
10348.75406
 30
0.0
 40
15.0
  1

  7
ROMANS8
100
AcDbText
  0
TEXT
  5
1D84F
100
AcDbEntity
  8
STP
100
AcDbText
 10
24420.390664
 20
10324.468346
 30
0.0
 40
15.0
  1

  7
ROMANS8
100
AcDbText
  0
TEXT
  5
1D850
100
AcDbEntity
  8
STP
100
AcDbText
 10
28668.504334
 20
8734.508447
 30
0.0
 40
15.0
  1

  7
ROMANS8
100
AcDbText
  0
TEXT
  5
1D851
100
AcDbEntity
  8
STP
100
AcDbText
 10
24391.934337
 20
7445.958068
 30
0.0
 40
15.0
  1

  7
ROMANS8
100
AcDbText
  0
TEXT
  5
1D852
100
AcDbEntity
  8
STP
100
AcDbText
 10
24396.934337
 20
7470.243782
 30
0.0
 40
15.0
  1

  7
ROMANS8
100
AcDbText
  0
TEXT
  5
1D853
100
AcDbEntity
  8
STP
100
AcDbText
 10
26437.004334
 20
9391.865589
 30
0.0
 40
3.0
  1

  7
ROMANS8
100
AcDbText
  0
TEXT
  5
1D854
100
AcDbEntity
  8
BEMASS
100
AcDbText
 10
22620.504334
 20
8417.579875
 30
0.0
 40
50.0
  1

  7
ROMANS8
100
AcDbText
  0
TEXT
  5
1D855
100
AcDbEntity
  8
BEMASS
100
AcDbText
 10
26157.004334
 20
7299.722732
 30
0.0
 40
3.0
  1

  7
ROMANS8
100
AcDbText
  0
TEXT
  5
1D856
100
AcDbEntity
  8
BEMASS
100
AcDbText
 10
29110.504334
 20
8926.794161
 30
0.0
 40
15.0
  1

  7
ROMANS8
100
AcDbText
  0
TEXT
  5
1D857
100
AcDbEntity
  8
STP
100
AcDbText
 10
21398.500877
 20
10083.565492
 30
0.0
 40
3.0
  1

  7
ROMANS8
100
AcDbText
  0
TEXT
  5
1D858
100
AcDbEntity
  8
STP
100
AcDbText
 10
31392.390664
 20
13110.75406
 30
0.0
 40
15.0
  1

  7
ROMANS8
100
AcDbText
  0
TEXT
  5
1D859
100
AcDbEntity
  8
STP
100
AcDbText
 10
31387.390664
 20
13086.468346
 30
0.0
 40
15.0
  1

  7
ROMANS8
100
AcDbText
  0
TEXT
  5
1D85A
100
AcDbEntity
  8
STP
100
AcDbText
 10
35635.504334
 20
11496.508447
 30
0.0
 40
15.0
  1

  7
ROMANS8
100
AcDbText
  0
TEXT
  5
1D85B
100
AcDbEntity
  8
STP
100
AcDbText
 10
31358.934337
 20
10207.958068
 30
0.0
 40
15.0
  1

  7
ROMANS8
100
AcDbText
  0
TEXT
  5
1D85C
100
AcDbEntity
  8
STP
100
AcDbText
 10
31363.934337
 20
10232.243782
 30
0.0
 40
15.0
  1

  7
ROMANS8
100
AcDbText
  0
TEXT
  5
1D85D
100
AcDbEntity
  8
STP
100
AcDbText
 10
33404.004334
 20
12153.865589
 30
0.0
 40
3.0
  1

  7
ROMANS8
100
AcDbText
  0
TEXT
  5
1D85E
100
AcDbEntity
  8
STP
100
AcDbText
 10
42101.504334
 20
10158.079875
 30
0.0
 40
15.0
  1

  7
ROMANS8
100
AcDbText
  0
TEXT
  5
1D85F
100
AcDbEntity
  8
STP
100
AcDbText
 10
42101.504334
 20
13008.079875
 30
0.0
 40
15.0
  1

  7
ROMANS8
100
AcDbText
  0
TEXT
  5
1D860
100
AcDbEntity
  8
STP
100
AcDbText
 10
47121.504334
 20
16680.579875
 30
0.0
 40
15.0
  1

  7
ROMANS8
100
AcDbText
  0
TEXT
  5
1D861
100
AcDbEntity
  8
STP
100
AcDbText
 10
46847.004334
 20
16680.579875
 30
0.0
 40
15.0
  1

  7
ROMANS8
100
AcDbText
  0
TEXT
  5
1D862
100
AcDbEntity
  8
STP
100
AcDbText
 10
37814.390664
 20
13095.25406
 30
0.0
 40
15.0
  1

  7
ROMANS8
100
AcDbText
  0
TEXT
  5
1D863
100
AcDbEntity
  8
STP
100
AcDbText
 10
37809.390664
 20
13070.968346
 30
0.0
 40
15.0
  1

  7
ROMANS8
100
AcDbText
  0
TEXT
  5
1D864
100
AcDbEntity
  8
STP
100
AcDbText
 10
42057.504334
 20
11481.008447
 30
0.0
 40
15.0
  1

  7
ROMANS8
100
AcDbText
  0
TEXT
  5
1D865
100
AcDbEntity
  8
STP
100
AcDbText
 10
37780.934337
 20
10192.458068
 30
0.0
 40
15.0
  1

  7
ROMANS8
100
AcDbText
  0
TEXT
  5
1D866
100
AcDbEntity
  8
STP
100
AcDbText
 10
37785.934337
 20
10216.743782
 30
0.0
 40
15.0
  1

  7
ROMANS8
100
AcDbText
  0
TEXT
  5
1D867
100
AcDbEntity
  8
STP
100
AcDbText
 10
39826.004334
 20
12138.365589
 30
0.0
 40
3.0
  1

  7
ROMANS8
100
AcDbText
  0
TEXT
  5
1D868
100
AcDbEntity
  8
BEMASS
100
AcDbText
 10
36009.504334
 20
11164.079875
 30
0.0
 40
50.0
  1

  7
ROMANS8
100
AcDbText
  0
TEXT
  5
1D869
100
AcDbEntity
  8
BEMASS
100
AcDbText
 10
39546.004334
 20
10046.222732
 30
0.0
 40
3.0
  1

  7
ROMANS8
100
AcDbText
  0
TEXT
  5
1D86A
100
AcDbEntity
  8
BEMASS
100
AcDbText
 10
42499.504334
 20
11673.294161
 30
0.0
 40
15.0
  1

  7
ROMANS8
100
AcDbText
  0
TEXT
  5
1D86B
100
AcDbEntity
  8
STP
100
AcDbText
 10
34787.500877
 20
12830.065492
 30
0.0
 40
3.0
  1

  7
ROMANS8
100
AcDbText
  0
TEXT
  5
1D86C
100
AcDbEntity
  8
STP
100
AcDbText
 10
31599.890664
 20
12001.25406
 30
0.0
 40
15.0
  1

  7
ROMANS8
100
AcDbText
  0
TEXT
  5
1D86D
100
AcDbEntity
  8
STP
100
AcDbText
 10
31594.890664
 20
11976.968346
 30
0.0
 40
15.0
  1

  7
ROMANS8
100
AcDbText
  0
TEXT
  5
1D86E
100
AcDbEntity
  8
STP
100
AcDbText
 10
35843.004334
 20
10387.008447
 30
0.0
 40
15.0
  1

  7
ROMANS8
100
AcDbText
  0
TEXT
  5
1D86F
100
AcDbEntity
  8
STP
100
AcDbText
 10
31566.434337
 20
9098.458068
 30
0.0
 40
15.0
  1

  7
ROMANS8
100
AcDbText
  0
TEXT
  5
1D870
100
AcDbEntity
  8
STP
100
AcDbText
 10
31571.434337
 20
9122.743782
 30
0.0
 40
15.0
  1

  7
ROMANS8
100
AcDbText
  0
TEXT
  5
1D871
100
AcDbEntity
  8
BEMASS
100
AcDbText
 10
27975.616067
 20
17066.592607
 30
0.0
 40
20.0
  1

  7
ROMANS8
100
AcDbText
  0
TEXT
  5
1D872
100
AcDbEntity
  8
STP
100
AcDbText
 10
31765.390664
 20
16541.25406
 30
0.0
 40
15.0
  1

  7
ROMANS8
100
AcDbText
  0
TEXT
  5
1D873
100
AcDbEntity
  8
STP
100
AcDbText
 10
31760.390664
 20
16516.968346
 30
0.0
 40
15.0
  1

  7
ROMANS8
100
AcDbText
  0
TEXT
  5
1D874
100
AcDbEntity
  8
STP
100
AcDbText
 10
36008.504334
 20
14927.008447
 30
0.0
 40
15.0
  1

  7
ROMANS8
100
AcDbText
  0
TEXT
  5
1D875
100
AcDbEntity
  8
STP
100
AcDbText
 10
31731.934337
 20
13638.458068
 30
0.0
 40
15.0
  1

  7
ROMANS8
100
AcDbText
  0
TEXT
  5
1D876
100
AcDbEntity
  8
STP
100
AcDbText
 10
31736.934337
 20
13662.743782
 30
0.0
 40
15.0
  1

  7
ROMANS8
100
AcDbText
  0
TEXT
  5
1D877
100
AcDbEntity
  8
STP
100
AcDbText
 10
35843.390664
 20
16544.25406
 30
0.0
 40
15.0
  1

  7
ROMANS8
100
AcDbText
  0
TEXT
  5
1D878
100
AcDbEntity
  8
STP
100
AcDbText
 10
35838.390664
 20
16519.968346
 30
0.0
 40
15.0
  1

  7
ROMANS8
100
AcDbText
  0
TEXT
  5
1D879
100
AcDbEntity
  8
STP
100
AcDbText
 10
40086.504334
 20
14930.008447
 30
0.0
 40
15.0
  1

  7
ROMANS8
100
AcDbText
  0
TEXT
  5
1D87A
100
AcDbEntity
  8
STP
100
AcDbText
 10
35809.934337
 20
13641.458068
 30
0.0
 40
15.0
  1

  7
ROMANS8
100
AcDbText
  0
TEXT
  5
1D87B
100
AcDbEntity
  8
STP
100
AcDbText
 10
35814.934337
 20
13665.743782
 30
0.0
 40
15.0
  1

  7
ROMANS8
100
AcDbText
  0
TEXT
  5
1D87C
100
AcDbEntity
  8
STP
100
AcDbText
 10
37855.004334
 20
15587.365589
 30
0.0
 40
3.0
  1

  7
ROMANS8
100
AcDbText
  0
TEXT
  5
1D87D
100
AcDbEntity
  8
STP
100
AcDbText
 10
39901.390664
 20
17011.75406
 30
0.0
 40
15.0
  1

  7
ROMANS8
100
AcDbText
  0
TEXT
  5
1D87E
100
AcDbEntity
  8
STP
100
AcDbText
 10
39896.390664
 20
16987.468346
 30
0.0
 40
15.0
  1

  7
ROMANS8
100
AcDbText
  0
TEXT
  5
1D87F
100
AcDbEntity
  8
STP
100
AcDbText
 10
44144.504334
 20
15397.508447
 30
0.0
 40
15.0
  1

  7
ROMANS8
100
AcDbText
  0
TEXT
  5
1D880
100
AcDbEntity
  8
STP
100
AcDbText
 10
39867.934337
 20
14108.958068
 30
0.0
 40
15.0
  1

  7
ROMANS8
100
AcDbText
  0
TEXT
  5
1D881
100
AcDbEntity
  8
STP
100
AcDbText
 10
39872.934337
 20
14133.243782
 30
0.0
 40
15.0
  1

  7
ROMANS8
100
AcDbText
  0
TEXT
  5
1D882
100
AcDbEntity
  8
STP
100
AcDbText
 10
41913.004334
 20
16054.865589
 30
0.0
 40
3.0
  1

  7
ROMANS8
100
AcDbText
  0
TEXT
  5
1D883
100
AcDbEntity
  8
BEMASS
100
AcDbText
 10
38096.504334
 20
15080.579875
 30
0.0
 40
50.0
  1

  7
ROMANS8
100
AcDbText
  0
TEXT
  5
1D884
100
AcDbEntity
  8
BEMASS
100
AcDbText
 10
41633.004334
 20
13962.722732
 30
0.0
 40
3.0
  1

  7
ROMANS8
100
AcDbText
  0
TEXT
  5
1D885
100
AcDbEntity
  8
BEMASS
100
AcDbText
 10
44586.504334
 20
15589.794161
 30
0.0
 40
15.0
  1

  7
ROMANS8
100
AcDbText
  0
TEXT
  5
1D886
100
AcDbEntity
  8
BEMASS
100
AcDbText
 10
28348.616067
 20
16266.592607
 30
0.0
 40
20.0
  1

  7
ROMANS8
100
AcDbText
  0
INSERT
  5
1D887
100
AcDbEntity
  8
ASHADE
 62
     1
100
AcDbBlockReference
  2
AVE_RENDER
 10
33082.504334
 20
17006.079875
 30
0.0
1001
AVE_RENDER
1002
{
1070
     2
1000
Pref
1070
    30
1070
    20
1070
     0
1070
     0
1000

1070
    10
1070
     0
1070
    30
1040
1.0
1070
     1
1040
0.3
1040
0.7
1040
0.0
1040
10.0
1010
-1.0
1020
-1.0
1030
-1.0
1040
0.3
1070
    49
1002
}
  0
INSERT
  5
1D888
100
AcDbEntity
  8
ASHADE
 62
     3
100
AcDbBlockReference
  2
AVE_RENDER
 10
33082.504334
 20
17006.079875
 30
0.0
1001
AVE_RENDER
1002
{
1070
     0
1000
Full Opt
1070
     0
1070
     1
1070
     1
1070
     1
1070
     0
1070
     0
1070
     0
1070
     1
1070
     1
1040
0.0001
1040
0.0001
1002
}
  0
INSERT
  5
1D889
100
AcDbEntity
  8
ASHADE
 62
     4
100
AcDbBlockReference
  2
AVE_RENDER
 10
33082.504334
 20
17006.079875
 30
0.0
1001
AVE_RENDER
1002
{
1070
     0
1000
Quick Opt
1070
     0
1070
     1
1070
     1
1070
     1
1070
     0
1070
     0
1070
     1
1002
}
  0
TEXT
  5
1D88A
100
AcDbEntity
  8
STP
100
AcDbText
 10
27410.073264
 20
3619.250458
 30
0.0
 40
15.0
  1

  7
ROMANS8
100
AcDbText
  0
TEXT
  5
1D88B
100
AcDbEntity
  8
STP
100
AcDbText
 10
27405.073264
 20
3594.964744
 30
0.0
 40
15.0
  1

  7
ROMANS8
100
AcDbText
  0
TEXT
  5
1D88C
100
AcDbEntity
  8
STP
100
AcDbText
 10
31653.186934
 20
2005.004844
 30
0.0
 40
15.0
  1

  7
ROMANS8
100
AcDbText
  0
TEXT
  5
1D88D
100
AcDbEntity
  8
STP
100
AcDbText
 10
27376.616938
 20
716.454466
 30
0.0
 40
15.0
  1

  7
ROMANS8
100
AcDbText
  0
TEXT
  5
1D88E
100
AcDbEntity
  8
STP
100
AcDbText
 10
27381.616938
 20
740.74018
 30
0.0
 40
15.0
  1

  7
ROMANS8
100
AcDbText
  0
TEXT
  5
1D88F
100
AcDbEntity
  8
STP
100
AcDbText
 10
29421.686934
 20
2662.361987
 30
0.0
 40
3.0
  1

  7
ROMANS8
100
AcDbText
  0
TEXT
  5
1D890
100
AcDbEntity
  8
STP
100
AcDbText
 10
38119.186934
 20
666.576273
 30
0.0
 40
15.0
  1

  7
ROMANS8
100
AcDbText
  0
TEXT
  5
1D891
100
AcDbEntity
  8
STP
100
AcDbText
 10
38119.186934
 20
3516.576273
 30
0.0
 40
15.0
  1

  7
ROMANS8
100
AcDbText
  0
TEXT
  5
1D892
100
AcDbEntity
  8
STP
100
AcDbText
 10
43139.186934
 20
7189.076273
 30
0.0
 40
15.0
  1

  7
ROMANS8
100
AcDbText
  0
TEXT
  5
1D893
100
AcDbEntity
  8
STP
100
AcDbText
 10
42864.686934
 20
7189.076273
 30
0.0
 40
15.0
  1

  7
ROMANS8
100
AcDbText
  0
TEXT
  5
1D894
100
AcDbEntity
  8
STP
100
AcDbText
 10
29556.999434
 20
757.951273
 30
0.0
 40
15.375
  1

  7
ROMANS8
100
AcDbText
  0
TEXT
  5
1D895
100
AcDbEntity
  8
STP
100
AcDbText
 10
29556.999434
 20
737.995916
 30
0.0
 40
15.375
  1

  7
ROMANS8
100
AcDbText
  0
TEXT
  5
1D896
100
AcDbEntity
  8
STP
100
AcDbText
 10
29556.999434
 20
717.853059
 30
0.0
 40
15.375
  1

  7
ROMANS8
100
AcDbText
  0
TEXT
  5
1D897
100
AcDbEntity
  8
STP
100
AcDbText
 10
29556.999434
 20
697.835202
 30
0.0
 40
15.375
  1

  7
ROMANS8
100
AcDbText
  0
TEXT
  5
1D898
100
AcDbEntity
  8
STP
100
AcDbText
 10
29556.999434
 20
677.879844
 30
0.0
 40
15.375
  1

  7
ROMANS8
100
AcDbText
  0
TEXT
  5
1D899
100
AcDbEntity
  8
STP
100
AcDbText
 10
33832.073264
 20
3603.750458
 30
0.0
 40
15.0
  1

  7
ROMANS8
100
AcDbText
  0
TEXT
  5
1D89A
100
AcDbEntity
  8
STP
100
AcDbText
 10
33827.073264
 20
3579.464744
 30
0.0
 40
15.0
  1

  7
ROMANS8
100
AcDbText
  0
TEXT
  5
1D89B
100
AcDbEntity
  8
STP
100
AcDbText
 10
38075.186934
 20
1989.504844
 30
0.0
 40
15.0
  1

  7
ROMANS8
100
AcDbText
  0
TEXT
  5
1D89C
100
AcDbEntity
  8
STP
100
AcDbText
 10
33798.616938
 20
700.954466
 30
0.0
 40
15.0
  1

  7
ROMANS8
100
AcDbText
  0
TEXT
  5
1D89D
100
AcDbEntity
  8
STP
100
AcDbText
 10
33803.616938
 20
725.24018
 30
0.0
 40
15.0
  1

  7
ROMANS8
100
AcDbText
  0
TEXT
  5
1D89E
100
AcDbEntity
  8
STP
100
AcDbText
 10
35843.686934
 20
2646.861987
 30
0.0
 40
3.0
  1

  7
ROMANS8
100
AcDbText
  0
TEXT
  5
1D89F
100
AcDbEntity
  8
BEMASS
100
AcDbText
 10
32027.186934
 20
1672.576273
 30
0.0
 40
50.0
  1

  7
ROMANS8
100
AcDbText
  0
TEXT
  5
1D8A0
100
AcDbEntity
  8
BEMASS
100
AcDbText
 10
35563.686934
 20
554.71913
 30
0.0
 40
3.0
  1

  7
ROMANS8
100
AcDbText
  0
TEXT
  5
1D8A1
100
AcDbEntity
  8
BEMASS
100
AcDbText
 10
38517.186934
 20
2181.790559
 30
0.0
 40
15.0
  1

  7
ROMANS8
100
AcDbText
  0
TEXT
  5
1D8A2
100
AcDbEntity
  8
STP
100
AcDbText
 10
30805.183478
 20
3338.56189
 30
0.0
 40
3.0
  1

  7
ROMANS8
100
AcDbText
  0
TEXT
  5
1D8A3
100
AcDbEntity
  8
STP
100
AcDbText
 10
30517.738498
 20
3630.910573
 30
0.0
 40
15.0
  1

  7
ROMANS8
100
AcDbText
  0
TEXT
  5
1D8A4
100
AcDbEntity
  8
STP
100
AcDbText
 10
30512.738498
 20
3606.624858
 30
0.0
 40
15.0
  1

  7
ROMANS8
100
AcDbText
  0
TEXT
  5
1D8A5
100
AcDbEntity
  8
STP
100
AcDbText
 10
34760.852167
 20
2016.664959
 30
0.0
 40
15.0
  1

  7
ROMANS8
100
AcDbText
  0
TEXT
  5
1D8A6
100
AcDbEntity
  8
STP
100
AcDbText
 10
30484.282171
 20
728.11458
 30
0.0
 40
15.0
  1

  7
ROMANS8
100
AcDbText
  0
TEXT
  5
1D8A7
100
AcDbEntity
  8
STP
100
AcDbText
 10
30489.282171
 20
752.400295
 30
0.0
 40
15.0
  1

  7
ROMANS8
100
AcDbText
  0
TEXT
  5
1D8A8
100
AcDbEntity
  8
STP
100
AcDbText
 10
32529.352167
 20
2674.022102
 30
0.0
 40
3.0
  1

  7
ROMANS8
100
AcDbText
  0
TEXT
  5
1D8A9
100
AcDbEntity
  8
STP
100
AcDbText
 10
41226.852167
 20
678.236388
 30
0.0
 40
15.0
  1

  7
ROMANS8
100
AcDbText
  0
TEXT
  5
1D8AA
100
AcDbEntity
  8
STP
100
AcDbText
 10
41226.852167
 20
3528.236388
 30
0.0
 40
15.0
  1

  7
ROMANS8
100
AcDbText
  0
TEXT
  5
1D8AB
100
AcDbEntity
  8
STP
100
AcDbText
 10
46246.852167
 20
7200.736388
 30
0.0
 40
15.0
  1

  7
ROMANS8
100
AcDbText
  0
TEXT
  5
1D8AC
100
AcDbEntity
  8
STP
100
AcDbText
 10
45972.352167
 20
7200.736388
 30
0.0
 40
15.0
  1

  7
ROMANS8
100
AcDbText
  0
TEXT
  5
1D8AD
100
AcDbEntity
  8
STP
100
AcDbText
 10
32664.664667
 20
769.611388
 30
0.0
 40
15.375
  1

  7
ROMANS8
100
AcDbText
  0
TEXT
  5
1D8AE
100
AcDbEntity
  8
STP
100
AcDbText
 10
32664.664667
 20
749.65603
 30
0.0
 40
15.375
  1

  7
ROMANS8
100
AcDbText
  0
TEXT
  5
1D8AF
100
AcDbEntity
  8
STP
100
AcDbText
 10
32664.664667
 20
729.513173
 30
0.0
 40
15.375
  1

  7
ROMANS8
100
AcDbText
  0
TEXT
  5
1D8B0
100
AcDbEntity
  8
STP
100
AcDbText
 10
32664.664667
 20
709.495316
 30
0.0
 40
15.375
  1

  7
ROMANS8
100
AcDbText
  0
TEXT
  5
1D8B1
100
AcDbEntity
  8
STP
100
AcDbText
 10
32664.664667
 20
689.539959
 30
0.0
 40
15.375
  1

  7
ROMANS8
100
AcDbText
  0
TEXT
  5
1D8B2
100
AcDbEntity
  8
STP
100
AcDbText
 10
36939.738498
 20
3615.410573
 30
0.0
 40
15.0
  1

  7
ROMANS8
100
AcDbText
  0
TEXT
  5
1D8B3
100
AcDbEntity
  8
STP
100
AcDbText
 10
36934.738498
 20
3591.124858
 30
0.0
 40
15.0
  1

  7
ROMANS8
100
AcDbText
  0
TEXT
  5
1D8B4
100
AcDbEntity
  8
STP
100
AcDbText
 10
41182.852167
 20
2001.164959
 30
0.0
 40
15.0
  1

  7
ROMANS8
100
AcDbText
  0
TEXT
  5
1D8B5
100
AcDbEntity
  8
STP
100
AcDbText
 10
36906.282171
 20
712.61458
 30
0.0
 40
15.0
  1

  7
ROMANS8
100
AcDbText
  0
TEXT
  5
1D8B6
100
AcDbEntity
  8
STP
100
AcDbText
 10
36911.282171
 20
736.900295
 30
0.0
 40
15.0
  1

  7
ROMANS8
100
AcDbText
  0
TEXT
  5
1D8B7
100
AcDbEntity
  8
STP
100
AcDbText
 10
38951.352167
 20
2658.522102
 30
0.0
 40
3.0
  1

  7
ROMANS8
100
AcDbText
  0
TEXT
  5
1D8B8
100
AcDbEntity
  8
BEMASS
100
AcDbText
 10
35134.852167
 20
1684.236388
 30
0.0
 40
50.0
  1

  7
ROMANS8
100
AcDbText
  0
TEXT
  5
1D8B9
100
AcDbEntity
  8
BEMASS
100
AcDbText
 10
38671.352167
 20
566.379245
 30
0.0
 40
3.0
  1

  7
ROMANS8
100
AcDbText
  0
TEXT
  5
1D8BA
100
AcDbEntity
  8
BEMASS
100
AcDbText
 10
41624.852167
 20
2193.450673
 30
0.0
 40
15.0
  1

  7
ROMANS8
100
AcDbText
  0
TEXT
  5
1D8BB
100
AcDbEntity
  8
STP
100
AcDbText
 10
33912.848711
 20
3350.222005
 30
0.0
 40
3.0
  1

  7
ROMANS8
100
AcDbText
  0
MTEXT
  5
1D8BC
100
AcDbEntity
  8
WANNE
100
AcDbMText
 10
4314.982879
 20
3320.332606
 30
0.0
 40
20.0
 41
0.0
 71
     6
 72
     1
  1
\A1;
  7
ROMANS8
  0
TEXT
  5
1D8BD
100
AcDbEntity
  8
STP
100
AcDbText
 10
6569.133903
 20
8850.875569
 30
0.0
 40
15.0
  1

  7
ROMANS8
100
AcDbText
  0
TEXT
  5
1D8BE
100
AcDbEntity
  8
STP
100
AcDbText
 10
6564.133903
 20
8826.589855
 30
0.0
 40
15.0
  1

  7
ROMANS8
100
AcDbText
  0
TEXT
  5
1D8BF
100
AcDbEntity
  8
STP
100
AcDbText
 10
10812.247572
 20
7236.629955
 30
0.0
 40
15.0
  1

  7
ROMANS8
100
AcDbText
  0
TEXT
  5
1D8C0
100
AcDbEntity
  8
STP
100
AcDbText
 10
6535.677576
 20
5948.079576
 30
0.0
 40
15.0
  1

  7
ROMANS8
100
AcDbText
  0
TEXT
  5
1D8C1
100
AcDbEntity
  8
STP
100
AcDbText
 10
6540.677576
 20
5972.365291
 30
0.0
 40
15.0
  1

  7
ROMANS8
100
AcDbText
  0
TEXT
  5
1D8C2
100
AcDbEntity
  8
STP
100
AcDbText
 10
8580.747572
 20
7893.987098
 30
0.0
 40
3.0
  1

  7
ROMANS8
100
AcDbText
  0
TEXT
  5
1D8C3
100
AcDbEntity
  8
STP
100
AcDbText
 10
10627.133903
 20
9318.375569
 30
0.0
 40
15.0
  1

  7
ROMANS8
100
AcDbText
  0
TEXT
  5
1D8C4
100
AcDbEntity
  8
STP
100
AcDbText
 10
10622.133903
 20
9294.089855
 30
0.0
 40
15.0
  1

  7
ROMANS8
100
AcDbText
  0
TEXT
  5
1D8C5
100
AcDbEntity
  8
STP
100
AcDbText
 10
14870.247572
 20
7704.129955
 30
0.0
 40
15.0
  1

  7
ROMANS8
100
AcDbText
  0
TEXT
  5
1D8C6
100
AcDbEntity
  8
STP
100
AcDbText
 10
10593.677576
 20
6415.579576
 30
0.0
 40
15.0
  1

  7
ROMANS8
100
AcDbText
  0
TEXT
  5
1D8C7
100
AcDbEntity
  8
STP
100
AcDbText
 10
10598.677576
 20
6439.865291
 30
0.0
 40
15.0
  1

  7
ROMANS8
100
AcDbText
  0
TEXT
  5
1D8C8
100
AcDbEntity
  8
STP
100
AcDbText
 10
12638.747572
 20
8361.487098
 30
0.0
 40
3.0
  1

  7
ROMANS8
100
AcDbText
  0
TEXT
  5
1D8C9
100
AcDbEntity
  8
BEMASS
100
AcDbText
 10
8822.247572
 20
7387.201384
 30
0.0
 40
50.0
  1

  7
ROMANS8
100
AcDbText
  0
TEXT
  5
1D8CA
100
AcDbEntity
  8
BEMASS
100
AcDbText
 10
12358.747572
 20
6269.344241
 30
0.0
 40
3.0
  1

  7
ROMANS8
100
AcDbText
  0
TEXT
  5
1D8CB
100
AcDbEntity
  8
BEMASS
100
AcDbText
 10
15312.247572
 20
7896.415669
 30
0.0
 40
15.0
  1

  7
ROMANS8
100
AcDbText
  0
TEXT
  5
1D8CC
100
AcDbEntity
  8
STP
100
AcDbText
 10
10977.633903
 20
10226.375569
 30
0.0
 40
15.0
  1

  7
ROMANS8
100
AcDbText
  0
TEXT
  5
1D8CD
100
AcDbEntity
  8
STP
100
AcDbText
 10
10972.633903
 20
10202.089855
 30
0.0
 40
15.0
  1

  7
ROMANS8
100
AcDbText
  0
TEXT
  5
1D8CE
100
AcDbEntity
  8
STP
100
AcDbText
 10
15220.747572
 20
8612.129955
 30
0.0
 40
15.0
  1

  7
ROMANS8
100
AcDbText
  0
TEXT
  5
1D8CF
100
AcDbEntity
  8
STP
100
AcDbText
 10
10944.177576
 20
7323.579576
 30
0.0
 40
15.0
  1

  7
ROMANS8
100
AcDbText
  0
TEXT
  5
1D8D0
100
AcDbEntity
  8
STP
100
AcDbText
 10
10949.177576
 20
7347.865291
 30
0.0
 40
15.0
  1

  7
ROMANS8
100
AcDbText
  0
TEXT
  5
1D8D1
100
AcDbEntity
  8
STP
100
AcDbText
 10
12989.247572
 20
9269.487098
 30
0.0
 40
3.0
  1

  7
ROMANS8
100
AcDbText
  0
TEXT
  5
1D8D2
100
AcDbEntity
  8
BEMASS
100
AcDbText
 10
9172.747572
 20
8295.201384
 30
0.0
 40
50.0
  1

  7
ROMANS8
100
AcDbText
  0
TEXT
  5
1D8D3
100
AcDbEntity
  8
BEMASS
100
AcDbText
 10
12709.247572
 20
7177.344241
 30
0.0
 40
3.0
  1

  7
ROMANS8
100
AcDbText
  0
TEXT
  5
1D8D4
100
AcDbEntity
  8
BEMASS
100
AcDbText
 10
15662.747572
 20
8804.415669
 30
0.0
 40
15.0
  1

  7
ROMANS8
100
AcDbText
  0
TEXT
  5
1D8D5
100
AcDbEntity
  8
STP
100
AcDbText
 10
7950.744116
 20
9961.187001
 30
0.0
 40
3.0
  1

  7
ROMANS8
100
AcDbText
  0
TEXT
  5
1D8D6
100
AcDbEntity
  8
STP
100
AcDbText
 10
6565.677576
 20
5950.579576
 30
0.0
 40
15.0
  1

  7
ROMANS8
100
AcDbText
  0
MTEXT
  5
1D8D7
100
AcDbEntity
  8
TT
100
AcDbMText
 10
8527.507879
 20
6248.676054
 30
0.0
 40
25.0
 41
0.0
 71
     7
 72
     5
  1

  7
ROMANS
  0
MTEXT
  5
1D8D8
100
AcDbEntity
  8
BEMASS
100
AcDbMText
 10
5080.863542
 20
6377.10013
 30
0.0
 40
25.0
 41
0.0
 71
     9
 72
     5
  1
 
  7
ROMANS
  0
MTEXT
  5
1D8D9
100
AcDbEntity
  8
BEMASS
100
AcDbMText
 10
4908.488892
 20
6332.274834
 30
0.0
 40
25.0
 41
0.0
 71
     9
 72
     5
  1

  7
ROMANS
  0
MTEXT
  5
1D8DA
100
AcDbEntity
  8
BEMASS
100
AcDbMText
 10
5483.533424
 20
6697.77415
 30
0.0
 40
25.0
 41
0.0
 71
     7
 72
     5
  1

  7
ROMANS
  0
MTEXT
  5
1D8DB
100
AcDbEntity
  8
BEMASS
100
AcDbMText
 10
3538.187652
 20
6700.501755
 30
0.0
 40
25.0
 41
0.0
 71
     9
 72
     5
  1

  7
ROMANS
  0
MTEXT
  5
1D8DC
100
AcDbEntity
  8
BEMASS
100
AcDbMText
 10
8105.740791
 20
6260.13972
 30
0.0
 40
6.0
 41
0.435431
 71
     1
 72
     5
  1

  7
ILKA2
  0
MTEXT
  5
1D8DD
100
AcDbEntity
  8
BEMASS
100
AcDbMText
 10
8049.653494
 20
6182.988976
 30
0.0
 40
5.0
 41
0.0
 71
     7
 72
     5
  1

  7
ILKA2
  0
INSERT
  5
1D8DE
100
AcDbEntity
  8
ASHADE
 62
     1
100
AcDbBlockReference
  2
AVE_RENDER
 10
7688.211289
 20
5778.138884
 30
0.0
1001
AVE_RENDER
1002
{
1070
     6
1000
Pref
1070
    30
1070
    20
1070
     1
1070
     0
1000

1070
    10
1070
     1
1070
    30
1040
1.0
1070
     1
1040
0.3
1040
0.7
1040
0.0
1040
10.0
1010
-1.0
1020
-1.0
1030
-1.0
1040
0.3
1070
    49
1070
     0
1070
     0
1010
1.0
1020
1.0
1030
1.0
1040
45.0
1070
     1
1070
     0
1000
WCS
1040
0.0
1002
}
  0
INSERT
  5
1D8DF
100
AcDbEntity
  8
ASHADE
 62
     3
100
AcDbBlockReference
  2
AVE_RENDER
 10
7688.211289
 20
5778.138884
 30
0.0
1001
AVE_RENDER
1002
{
1070
     0
1000
Full Opt
1070
     0
1070
     1
1070
     1
1070
     1
1070
     0
1070
     0
1070
     0
1070
     1
1070
     1
1040
0.0001
1040
0.0001
1002
}
  0
INSERT
  5
1D8E0
100
AcDbEntity
  8
ASHADE
 62
     4
100
AcDbBlockReference
  2
AVE_RENDER
 10
7688.211289
 20
5778.138884
 30
0.0
1001
AVE_RENDER
1002
{
1070
     0
1000
Quick Opt
1070
     0
1070
     1
1070
     1
1070
     1
1070
     0
1070
     0
1070
     1
1002
}
  0
INSERT
  5
1D8E1
100
AcDbEntity
  8
ASHADE
 62
     5
100
AcDbBlockReference
  2
AVE_RENDER
 10
7688.211289
 20
5778.138884
 30
0.0
1001
AVE_RENDER
1002
{
1070
     1
1000
Scanl Opt
1070
     2
1070
     0
1070
     2
1040
2.0
1040
4.0
1070
     0
1070
     1
1070
     0
1040
0.03
1002
}
  0
INSERT
  5
1D8E2
100
AcDbEntity
  8
ASHADE
 62
     6
100
AcDbBlockReference
  2
AVE_RENDER
 10
7688.211289
 20
5778.138884
 30
0.0
1001
AVE_RENDER
1002
{
1070
     2
1000
Raytr Opt
1070
     2
1070
     0
1070
     2
1040
2.0
1040
4.0
1070
     0
1070
     1
1070
     1
1040
0.03
1070
     3
1040
0.03
1002
}
  0
INSERT
  5
1D8E3
100
AcDbEntity
  8
ASHADE
 62
     7
100
AcDbBlockReference
  2
AVE_RENDER
 10
7688.211289
 20
5778.138884
 30
0.0
1001
AVE_RENDER
1002
{
1070
     0
1000
RFile Opt
1070
     5
1070
   640
1070
   480
1070
 10000
1070
     3
1070
    32
1070
    24
1070
     0
1070
     0
1070
     0
1070
     1
1070
     0
1070
     0
1070
     0
1002
}
  0
INSERT
  5
1D8E4
100
AcDbEntity
  8
ASHADE
 62
     8
100
AcDbBlockReference
  2
AVE_RENDER
 10
7688.211289
 20
5778.138884
 30
0.0
1001
AVE_RENDER
1002
{
1070
     0
1000
Fog Opt
1070
     0
1070
     0
1040
0.0
1040
1.0
1040
0.0
1040
1.0
1010
0.5
1020
0.5
1030
0.5
1002
}
  0
INSERT
  5
1D8E5
100
AcDbEntity
  8
ASHADE
 62
     9
100
AcDbBlockReference
  2
AVE_RENDER
 10
7688.211289
 20
5778.138884
 30
0.0
1001
AVE_RENDER
1002
{
1070
     0
1000
BG Opt
1070
     0
1070
     1
1010
0.0
1020
0.0
1030
0.0
1010
1.0
1020
0.0
1030
0.0
1010
0.0
1020
1.0
1030
0.0
1010
0.0
1020
0.0
1030
1.0
1040
0.5
1040
0.33
1040
0.0
1000

1070
     1
1000

1070
     1
1070
     1
1040
1.0
1040
1.0
1040
0.0
1040
0.0
1070
     0
1002
}
  0
INSERT
  5
1D8E6
100
AcDbEntity
  8
ASHADE
 62
     1
100
AcDbBlockReference
  2
AVE_GLOBAL
 10
7688.211289
 20
5778.138884
 30
0.0
1001
AVE_MATERIAL
1002
{
1000
*GLOBAL*
1000
1
1000
Globales Material.
1002
{
1002
}
1002
{
1070
    63
1002
{
1002
{
1010
-1.0
1020
-1.0
1030
-1.0
1002
}
1040
0.1
1000

1040
0.0
1002
{
1002
}
1040
0.0
1002
{
1002
}
1040
0.0
1002
}
1002
{
1002
{
1010
-1.0
1020
-1.0
1030
-1.0
1002
}
1040
0.7
1000

1040
0.0
1002
{
1002
}
1040
0.0
1002
{
1002
}
1040
0.0
1002
}
1002
{
1002
{
1010
-1.0
1020
-1.0
1030
-1.0
1002
}
1040
0.2
1000

1040
0.0
1002
{
1002
}
1040
0.0
1002
{
1002
}
1040
0.0
1002
}
1002
{
1070
     0
1002
{
1070
     1
1002
{
1040
1.0
1040
1.0
1000

1040
0.0
1002
{
1002
}
1040
0.0
1002
{
1002
}
1040
0.0
1002
}
1002
}
1040
1.0
1040
0.0
1040
0.0
1002
}
1002
{
1040
1.0
1040
1.0
1000

1040
0.0
1002
{
1002
}
1040
0.0
1002
{
1002
}
1040
0.0
1002
}
1002
{
1040
0.5
1040
1.0
1000

1040
0.0
1002
{
1002
}
1040
0.0
1002
{
1002
}
1040
0.0
1002
}
1002
{
1070
     0
1040
0.0
1002
{
1002
}
1040
1.0
1002
{
1002
}
1040
0.0
1002
}
1002
{
1040
0.0
1002
{
1002
{
1010
0.0
1020
0.0
1030
0.0
1002
}
1040
1.0
1000

1040
0.0
1002
{
1002
}
1040
0.0
1002
{
1002
}
1040
0.0
1002
}
1002
}
1002
{
1002
{
1070
     1
1002
{
1040
0.0
1040
1.0
1000

1040
0.0
1002
{
1002
}
1040
0.0
1002
{
1002
}
1040
0.0
1002
}
1002
}
1040
0.0
1002
{
1002
}
1010
1.0
1020
0.0
1030
0.0
1010
0.0
1020
1.0
1030
0.0
1010
0.0
1020
0.0
1030
1.0
1070
     0
1002
}
1002
{
1002
{
1040
1.0
1040
1.0
1002
{
1070
     1
1002
{
1040
1.0
1040
1.0
1000

1040
0.0
1002
{
1002
}
1040
0.0
1002
{
1002
}
1040
0.0
1002
}
1002
}
1002
}
1070
     0
1040
0.0
1002
{
1002
}
1002
}
1002
{
1002
}
1002
}
1002
{
1071
        3
1070
     3
1070
     0
1002
{
1070
     2
1070
     0
1070
     0
1040
0.0
1002
}
1070
     0
1070
     2
1002
{
1002
}
1002
}
1002
{
1040
8030.0
1040
190.300003
1040
0.305
1040
228.0
1040
545.0
1040
14.0
1040
17.4
1040
0.456
1002
}
1002
}
  0
MTEXT
  5
1D8E7
100
AcDbEntity
  8
BEMASS
100
AcDbMText
 10
11184.211289
 20
9311.138884
 30
0.0
 40
20.0
 41
0.0
 71
     7
 72
     5
  1
\P
  7
ROMANS
  0
MTEXT
  5
1D8E8
100
AcDbEntity
  8
BEMASS
100
AcDbMText
 10
10527.711289
 20
8725.138884
 30
0.0
 40
20.0
 41
0.0
 71
     9
 72
     5
  1
\P
  7
ROMANS
  0
TEXT
  5
1D8E9
100
AcDbEntity
  8
STP
100
AcDbText
 10
18228.097619
 20
9992.313069
 30
0.0
 40
15.0
  1

  7
ROMANS8
100
AcDbText
  0
TEXT
  5
1D8EA
100
AcDbEntity
  8
STP
100
AcDbText
 10
18223.097619
 20
9968.027355
 30
0.0
 40
15.0
  1

  7
ROMANS8
100
AcDbText
  0
TEXT
  5
1D8EB
100
AcDbEntity
  8
STP
100
AcDbText
 10
22471.211289
 20
8378.067455
 30
0.0
 40
15.0
  1

  7
ROMANS8
100
AcDbText
  0
TEXT
  5
1D8EC
100
AcDbEntity
  8
STP
100
AcDbText
 10
18194.641293
 20
7089.517076
 30
0.0
 40
15.0
  1

  7
ROMANS8
100
AcDbText
  0
TEXT
  5
1D8ED
100
AcDbEntity
  8
STP
100
AcDbText
 10
18199.641293
 20
7113.802791
 30
0.0
 40
15.0
  1

  7
ROMANS8
100
AcDbText
  0
TEXT
  5
1D8EE
100
AcDbEntity
  8
STP
100
AcDbText
 10
20239.711289
 20
9035.424598
 30
0.0
 40
3.0
  1

  7
ROMANS8
100
AcDbText
  0
TEXT
  5
1D8EF
100
AcDbEntity
  8
STP
100
AcDbText
 10
28937.211289
 20
7039.638884
 30
0.0
 40
15.0
  1

  7
ROMANS8
100
AcDbText
  0
TEXT
  5
1D8F0
100
AcDbEntity
  8
STP
100
AcDbText
 10
28937.211289
 20
9889.638884
 30
0.0
 40
15.0
  1

  7
ROMANS8
100
AcDbText
  0
TEXT
  5
1D8F1
100
AcDbEntity
  8
STP
100
AcDbText
 10
33957.211289
 20
13562.138884
 30
0.0
 40
15.0
  1

  7
ROMANS8
100
AcDbText
  0
TEXT
  5
1D8F2
100
AcDbEntity
  8
STP
100
AcDbText
 10
33682.711289
 20
13562.138884
 30
0.0
 40
15.0
  1

  7
ROMANS8
100
AcDbText
  0
TEXT
  5
1D8F3
100
AcDbEntity
  8
STP
100
AcDbText
 10
20375.023789
 20
7131.013884
 30
0.0
 40
15.375
  1

  7
ROMANS8
100
AcDbText
  0
TEXT
  5
1D8F4
100
AcDbEntity
  8
STP
100
AcDbText
 10
20375.023789
 20
7111.058527
 30
0.0
 40
15.375
  1

  7
ROMANS8
100
AcDbText
  0
TEXT
  5
1D8F5
100
AcDbEntity
  8
STP
100
AcDbText
 10
20375.023789
 20
7090.915669
 30
0.0
 40
15.375
  1

  7
ROMANS8
100
AcDbText
  0
TEXT
  5
1D8F6
100
AcDbEntity
  8
STP
100
AcDbText
 10
20375.023789
 20
7070.897812
 30
0.0
 40
15.375
  1

  7
ROMANS8
100
AcDbText
  0
TEXT
  5
1D8F7
100
AcDbEntity
  8
STP
100
AcDbText
 10
20375.023789
 20
7050.942455
 30
0.0
 40
15.375
  1

  7
ROMANS8
100
AcDbText
  0
TEXT
  5
1D8F8
100
AcDbEntity
  8
STP
100
AcDbText
 10
24650.097619
 20
9976.813069
 30
0.0
 40
15.0
  1

  7
ROMANS8
100
AcDbText
  0
TEXT
  5
1D8F9
100
AcDbEntity
  8
STP
100
AcDbText
 10
24645.097619
 20
9952.527355
 30
0.0
 40
15.0
  1

  7
ROMANS8
100
AcDbText
  0
TEXT
  5
1D8FA
100
AcDbEntity
  8
STP
100
AcDbText
 10
28893.211289
 20
8362.567455
 30
0.0
 40
15.0
  1

  7
ROMANS8
100
AcDbText
  0
TEXT
  5
1D8FB
100
AcDbEntity
  8
STP
100
AcDbText
 10
24616.641293
 20
7074.017076
 30
0.0
 40
15.0
  1

  7
ROMANS8
100
AcDbText
  0
TEXT
  5
1D8FC
100
AcDbEntity
  8
STP
100
AcDbText
 10
24621.641293
 20
7098.302791
 30
0.0
 40
15.0
  1

  7
ROMANS8
100
AcDbText
  0
TEXT
  5
1D8FD
100
AcDbEntity
  8
STP
100
AcDbText
 10
26661.711289
 20
9019.924598
 30
0.0
 40
3.0
  1

  7
ROMANS8
100
AcDbText
  0
TEXT
  5
1D8FE
100
AcDbEntity
  8
BEMASS
100
AcDbText
 10
22845.211289
 20
8045.638884
 30
0.0
 40
50.0
  1

  7
ROMANS8
100
AcDbText
  0
TEXT
  5
1D8FF
100
AcDbEntity
  8
BEMASS
100
AcDbText
 10
26381.711289
 20
6927.781741
 30
0.0
 40
3.0
  1

  7
ROMANS8
100
AcDbText
  0
TEXT
  5
1D900
100
AcDbEntity
  8
BEMASS
100
AcDbText
 10
29335.211289
 20
8554.853169
 30
0.0
 40
15.0
  1

  7
ROMANS8
100
AcDbText
  0
TEXT
  5
1D901
100
AcDbEntity
  8
STP
100
AcDbText
 10
21623.207833
 20
9711.624501
 30
0.0
 40
3.0
  1

  7
ROMANS8
100
AcDbText
  0
TEXT
  5
1D902
100
AcDbEntity
  8
STP
100
AcDbText
 10
21055.086289
 20
7048.763884
 30
0.0
 40
15.375
  1

  7
ROMANS8
100
AcDbText
  0
TEXT
  5
1D903
100
AcDbEntity
  8
STP
100
AcDbText
 10
24857.597619
 20
12470.813069
 30
0.0
 40
15.0
  1

  7
ROMANS8
100
AcDbText
  0
TEXT
  5
1D904
100
AcDbEntity
  8
STP
100
AcDbText
 10
24852.597619
 20
12446.527355
 30
0.0
 40
15.0
  1

  7
ROMANS8
100
AcDbText
  0
TEXT
  5
1D905
100
AcDbEntity
  8
STP
100
AcDbText
 10
29100.711289
 20
10856.567455
 30
0.0
 40
15.0
  1

  7
ROMANS8
100
AcDbText
  0
TEXT
  5
1D906
100
AcDbEntity
  8
STP
100
AcDbText
 10
24824.141293
 20
9568.017076
 30
0.0
 40
15.0
  1

  7
ROMANS8
100
AcDbText
  0
TEXT
  5
1D907
100
AcDbEntity
  8
STP
100
AcDbText
 10
24829.141293
 20
9592.302791
 30
0.0
 40
15.0
  1

  7
ROMANS8
100
AcDbText
  0
TEXT
  5
1D908
100
AcDbEntity
  8
STP
100
AcDbText
 10
26869.211289
 20
11513.924598
 30
0.0
 40
3.0
  1

  7
ROMANS8
100
AcDbText
  0
TEXT
  5
1D909
100
AcDbEntity
  8
BEMASS
100
AcDbText
 10
23052.711289
 20
10539.638884
 30
0.0
 40
50.0
  1

  7
ROMANS8
100
AcDbText
  0
TEXT
  5
1D90A
100
AcDbEntity
  8
BEMASS
100
AcDbText
 10
26589.211289
 20
9421.781741
 30
0.0
 40
3.0
  1

  7
ROMANS8
100
AcDbText
  0
TEXT
  5
1D90B
100
AcDbEntity
  8
BEMASS
100
AcDbText
 10
29542.711289
 20
11048.853169
 30
0.0
 40
15.0
  1

  7
ROMANS8
100
AcDbText
  0
TEXT
  5
1D90C
100
AcDbEntity
  8
STP
100
AcDbText
 10
21830.707833
 20
12205.624501
 30
0.0
 40
3.0
  1

  7
ROMANS8
100
AcDbText
  0
TEXT
  5
1D90D
100
AcDbEntity
  8
STP
100
AcDbText
 10
31824.597619
 20
15232.813069
 30
0.0
 40
15.0
  1

  7
ROMANS8
100
AcDbText
  0
TEXT
  5
1D90E
100
AcDbEntity
  8
STP
100
AcDbText
 10
31819.597619
 20
15208.527355
 30
0.0
 40
15.0
  1

  7
ROMANS8
100
AcDbText
  0
TEXT
  5
1D90F
100
AcDbEntity
  8
STP
100
AcDbText
 10
36067.711289
 20
13618.567455
 30
0.0
 40
15.0
  1

  7
ROMANS8
100
AcDbText
  0
TEXT
  5
1D910
100
AcDbEntity
  8
STP
100
AcDbText
 10
31791.141293
 20
12330.017076
 30
0.0
 40
15.0
  1

  7
ROMANS8
100
AcDbText
  0
TEXT
  5
1D911
100
AcDbEntity
  8
STP
100
AcDbText
 10
31796.141293
 20
12354.302791
 30
0.0
 40
15.0
  1

  7
ROMANS8
100
AcDbText
  0
TEXT
  5
1D912
100
AcDbEntity
  8
STP
100
AcDbText
 10
33836.211289
 20
14275.924598
 30
0.0
 40
3.0
  1

  7
ROMANS8
100
AcDbText
  0
TEXT
  5
1D913
100
AcDbEntity
  8
STP
100
AcDbText
 10
42533.711289
 20
12280.138884
 30
0.0
 40
15.0
  1

  7
ROMANS8
100
AcDbText
  0
TEXT
  5
1D914
100
AcDbEntity
  8
STP
100
AcDbText
 10
42533.711289
 20
15130.138884
 30
0.0
 40
15.0
  1

  7
ROMANS8
100
AcDbText
  0
TEXT
  5
1D915
100
AcDbEntity
  8
STP
100
AcDbText
 10
47553.711289
 20
18802.638884
 30
0.0
 40
15.0
  1

  7
ROMANS8
100
AcDbText
  0
TEXT
  5
1D916
100
AcDbEntity
  8
STP
100
AcDbText
 10
47279.211289
 20
18802.638884
 30
0.0
 40
15.0
  1

  7
ROMANS8
100
AcDbText
  0
TEXT
  5
1D917
100
AcDbEntity
  8
STP
100
AcDbText
 10
38246.597619
 20
15217.313069
 30
0.0
 40
15.0
  1

  7
ROMANS8
100
AcDbText
  0
TEXT
  5
1D918
100
AcDbEntity
  8
STP
100
AcDbText
 10
38241.597619
 20
15193.027355
 30
0.0
 40
15.0
  1

  7
ROMANS8
100
AcDbText
  0
TEXT
  5
1D919
100
AcDbEntity
  8
STP
100
AcDbText
 10
42489.711289
 20
13603.067455
 30
0.0
 40
15.0
  1

  7
ROMANS8
100
AcDbText
  0
TEXT
  5
1D91A
100
AcDbEntity
  8
STP
100
AcDbText
 10
38213.141293
 20
12314.517076
 30
0.0
 40
15.0
  1

  7
ROMANS8
100
AcDbText
  0
TEXT
  5
1D91B
100
AcDbEntity
  8
STP
100
AcDbText
 10
38218.141293
 20
12338.802791
 30
0.0
 40
15.0
  1

  7
ROMANS8
100
AcDbText
  0
TEXT
  5
1D91C
100
AcDbEntity
  8
STP
100
AcDbText
 10
40258.211289
 20
14260.424598
 30
0.0
 40
3.0
  1

  7
ROMANS8
100
AcDbText
  0
TEXT
  5
1D91D
100
AcDbEntity
  8
BEMASS
100
AcDbText
 10
36441.711289
 20
13286.138884
 30
0.0
 40
50.0
  1

  7
ROMANS8
100
AcDbText
  0
TEXT
  5
1D91E
100
AcDbEntity
  8
BEMASS
100
AcDbText
 10
39978.211289
 20
12168.281741
 30
0.0
 40
3.0
  1

  7
ROMANS8
100
AcDbText
  0
TEXT
  5
1D91F
100
AcDbEntity
  8
BEMASS
100
AcDbText
 10
42931.711289
 20
13795.353169
 30
0.0
 40
15.0
  1

  7
ROMANS8
100
AcDbText
  0
TEXT
  5
1D920
100
AcDbEntity
  8
STP
100
AcDbText
 10
35219.707833
 20
14952.124501
 30
0.0
 40
3.0
  1

  7
ROMANS8
100
AcDbText
  0
TEXT
  5
1D921
100
AcDbEntity
  8
STP
100
AcDbText
 10
32032.097619
 20
14123.313069
 30
0.0
 40
15.0
  1

  7
ROMANS8
100
AcDbText
  0
TEXT
  5
1D922
100
AcDbEntity
  8
STP
100
AcDbText
 10
32027.097619
 20
14099.027355
 30
0.0
 40
15.0
  1

  7
ROMANS8
100
AcDbText
  0
TEXT
  5
1D923
100
AcDbEntity
  8
STP
100
AcDbText
 10
36275.211289
 20
12509.067455
 30
0.0
 40
15.0
  1

  7
ROMANS8
100
AcDbText
  0
TEXT
  5
1D924
100
AcDbEntity
  8
STP
100
AcDbText
 10
31998.641293
 20
11220.517076
 30
0.0
 40
15.0
  1

  7
ROMANS8
100
AcDbText
  0
TEXT
  5
1D925
100
AcDbEntity
  8
STP
100
AcDbText
 10
32003.641293
 20
11244.802791
 30
0.0
 40
15.0
  1

  7
ROMANS8
100
AcDbText
  0
TEXT
  5
1D926
100
AcDbEntity
  8
BEMASS
100
AcDbText
 10
28407.823022
 20
19188.651615
 30
0.0
 40
20.0
  1

  7
ROMANS8
100
AcDbText
  0
TEXT
  5
1D927
100
AcDbEntity
  8
STP
100
AcDbText
 10
32197.597619
 20
18663.313069
 30
0.0
 40
15.0
  1

  7
ROMANS8
100
AcDbText
  0
TEXT
  5
1D928
100
AcDbEntity
  8
STP
100
AcDbText
 10
32192.597619
 20
18639.027355
 30
0.0
 40
15.0
  1

  7
ROMANS8
100
AcDbText
  0
TEXT
  5
1D929
100
AcDbEntity
  8
STP
100
AcDbText
 10
36440.711289
 20
17049.067455
 30
0.0
 40
15.0
  1

  7
ROMANS8
100
AcDbText
  0
TEXT
  5
1D92A
100
AcDbEntity
  8
STP
100
AcDbText
 10
32164.141293
 20
15760.517076
 30
0.0
 40
15.0
  1

  7
ROMANS8
100
AcDbText
  0
TEXT
  5
1D92B
100
AcDbEntity
  8
STP
100
AcDbText
 10
32169.141293
 20
15784.802791
 30
0.0
 40
15.0
  1

  7
ROMANS8
100
AcDbText
  0
TEXT
  5
1D92C
100
AcDbEntity
  8
STP
100
AcDbText
 10
36275.597619
 20
18666.313069
 30
0.0
 40
15.0
  1

  7
ROMANS8
100
AcDbText
  0
TEXT
  5
1D92D
100
AcDbEntity
  8
STP
100
AcDbText
 10
36270.597619
 20
18642.027355
 30
0.0
 40
15.0
  1

  7
ROMANS8
100
AcDbText
  0
TEXT
  5
1D92E
100
AcDbEntity
  8
STP
100
AcDbText
 10
40518.711289
 20
17052.067455
 30
0.0
 40
15.0
  1

  7
ROMANS8
100
AcDbText
  0
TEXT
  5
1D92F
100
AcDbEntity
  8
STP
100
AcDbText
 10
36242.141293
 20
15763.517076
 30
0.0
 40
15.0
  1

  7
ROMANS8
100
AcDbText
  0
TEXT
  5
1D930
100
AcDbEntity
  8
STP
100
AcDbText
 10
36247.141293
 20
15787.802791
 30
0.0
 40
15.0
  1

  7
ROMANS8
100
AcDbText
  0
TEXT
  5
1D931
100
AcDbEntity
  8
STP
100
AcDbText
 10
38287.211289
 20
17709.424598
 30
0.0
 40
3.0
  1

  7
ROMANS8
100
AcDbText
  0
TEXT
  5
1D932
100
AcDbEntity
  8
STP
100
AcDbText
 10
40333.597619
 20
19133.813069
 30
0.0
 40
15.0
  1

  7
ROMANS8
100
AcDbText
  0
TEXT
  5
1D933
100
AcDbEntity
  8
STP
100
AcDbText
 10
40328.597619
 20
19109.527355
 30
0.0
 40
15.0
  1

  7
ROMANS8
100
AcDbText
  0
TEXT
  5
1D934
100
AcDbEntity
  8
STP
100
AcDbText
 10
44576.711289
 20
17519.567455
 30
0.0
 40
15.0
  1

  7
ROMANS8
100
AcDbText
  0
TEXT
  5
1D935
100
AcDbEntity
  8
STP
100
AcDbText
 10
40300.141293
 20
16231.017076
 30
0.0
 40
15.0
  1

  7
ROMANS8
100
AcDbText
  0
TEXT
  5
1D936
100
AcDbEntity
  8
STP
100
AcDbText
 10
40305.141293
 20
16255.302791
 30
0.0
 40
15.0
  1

  7
ROMANS8
100
AcDbText
  0
TEXT
  5
1D937
100
AcDbEntity
  8
STP
100
AcDbText
 10
42345.211289
 20
18176.924598
 30
0.0
 40
3.0
  1

  7
ROMANS8
100
AcDbText
  0
TEXT
  5
1D938
100
AcDbEntity
  8
BEMASS
100
AcDbText
 10
38528.711289
 20
17202.638884
 30
0.0
 40
50.0
  1

  7
ROMANS8
100
AcDbText
  0
TEXT
  5
1D939
100
AcDbEntity
  8
BEMASS
100
AcDbText
 10
42065.211289
 20
16084.781741
 30
0.0
 40
3.0
  1

  7
ROMANS8
100
AcDbText
  0
TEXT
  5
1D93A
100
AcDbEntity
  8
BEMASS
100
AcDbText
 10
45018.711289
 20
17711.853169
 30
0.0
 40
15.0
  1

  7
ROMANS8
100
AcDbText
  0
TEXT
  5
1D93B
100
AcDbEntity
  8
BEMASS
100
AcDbText
 10
28780.823022
 20
18388.651615
 30
0.0
 40
20.0
  1

  7
ROMANS8
100
AcDbText
  0
INSERT
  5
1D93C
100
AcDbEntity
  8
ASHADE
 62
     1
100
AcDbBlockReference
  2
AVE_RENDER
 10
33514.711289
 20
19128.138884
 30
0.0
1001
AVE_RENDER
1002
{
1070
     2
1000
Pref
1070
    30
1070
    20
1070
     0
1070
     0
1000

1070
    10
1070
     0
1070
    30
1040
1.0
1070
     1
1040
0.3
1040
0.7
1040
0.0
1040
10.0
1010
-1.0
1020
-1.0
1030
-1.0
1040
0.3
1070
    49
1002
}
  0
INSERT
  5
1D93D
100
AcDbEntity
  8
ASHADE
 62
     3
100
AcDbBlockReference
  2
AVE_RENDER
 10
33514.711289
 20
19128.138884
 30
0.0
1001
AVE_RENDER
1002
{
1070
     0
1000
Full Opt
1070
     0
1070
     1
1070
     1
1070
     1
1070
     0
1070
     0
1070
     0
1070
     1
1070
     1
1040
0.0001
1040
0.0001
1002
}
  0
INSERT
  5
1D93E
100
AcDbEntity
  8
ASHADE
 62
     4
100
AcDbBlockReference
  2
AVE_RENDER
 10
33514.711289
 20
19128.138884
 30
0.0
1001
AVE_RENDER
1002
{
1070
     0
1000
Quick Opt
1070
     0
1070
     1
1070
     1
1070
     1
1070
     0
1070
     0
1070
     1
1002
}
  0
TEXT
  5
1D93F
100
AcDbEntity
  8
STP
100
AcDbText
 10
10456.755658
 20
10446.156799
 30
0.0
 40
30.0
  1
 
  7
ROMANS8
100
AcDbText
  0
TEXT
  5
1D940
100
AcDbEntity
  8
STP
100
AcDbText
 10
10456.755658
 20
10397.58537
 30
0.0
 40
30.0
  1
 
  7
ROMANS8
100
AcDbText
  0
TEXT
  5
1D941
100
AcDbEntity
  8
STP
100
AcDbText
 10
10456.755658
 20
10349.013942
 30
0.0
 40
30.0
  1
 
  7
ROMANS8
100
AcDbText
  0
TEXT
  5
1D942
100
AcDbEntity
  8
STP
100
AcDbText
 10
13766.755658
 20
12406.156799
 30
0.0
 40
30.0
  1
 
  7
ROMANS8
100
AcDbText
  0
TEXT
  5
1D943
100
AcDbEntity
  8
STP
100
AcDbText
 10
13766.755658
 20
12357.58537
 30
0.0
 40
30.0
  1
 
  7
ROMANS8
100
AcDbText
  0
TEXT
  5
1D944
100
AcDbEntity
  8
STP
100
AcDbText
 10
13766.755658
 20
12309.013942
 30
0.0
 40
30.0
  1
 
  7
ROMANS8
100
AcDbText
  0
TEXT
  5
1D945
100
AcDbEntity
  8
STP
100
AcDbText
 10
10465.86678
 20
15530.701419
 30
0.0
 40
30.0
  1
 
  7
ROMANS8
100
AcDbText
  0
TEXT
  5
1D946
100
AcDbEntity
  8
STP
100
AcDbText
 10
10465.86678
 20
15482.12999
 30
0.0
 40
30.0
  1
 
  7
ROMANS8
100
AcDbText
  0
TEXT
  5
1D947
100
AcDbEntity
  8
STP
100
AcDbText
 10
10465.86678
 20
15433.558562
 30
0.0
 40
30.0
  1
 
  7
ROMANS8
100
AcDbText
  0
TEXT
  5
1D948
100
AcDbEntity
  8
STP
100
AcDbText
 10
11210.755658
 20
10707.728227
 30
0.0
 40
15.0
  1

  7
ROMANS8
100
AcDbText
  0
TEXT
  5
1D949
100
AcDbEntity
  8
BEMASS
100
AcDbText
 10
3550.472718
 20
8669.278061
 30
0.0
 40
30.0
  1

  7
ROMANS8
100
AcDbText
  0
TEXT
  5
1D94A
100
AcDbEntity
  8
BEMASS
100
AcDbText
 10
23454.211289
 20
13905.138884
 30
0.0
 40
30.0
  1

  7
ROMANS8
100
AcDbText
  0
TEXT
  5
1D94B
100
AcDbEntity
  8
BEMASS
100
AcDbText
 10
3890.472718
 20
8669.278061
 30
0.0
 40
30.0
  1

  7
ROMANS8
100
AcDbText
  0
TEXT
  5
1D94C
100
AcDbEntity
  8
BEMASS
100
AcDbText
 10
3690.472718
 20
8669.278061
 30
0.0
 40
30.0
  1

  7
ROMANS8
100
AcDbText
  0
TEXT
  5
1D94D
100
AcDbEntity
  8
STP
100
AcDbText
 10
17388.936603
 20
16160.243821
 30
0.0
 40
3.075
  1

  7
ROMANS8
100
AcDbText
  0
TEXT
  5
1D94E
100
AcDbEntity
  8
STP
100
AcDbText
 10
17388.936603
 20
16156.252749
 30
0.0
 40
3.075
  1

  7
ROMANS8
100
AcDbText
  0
TEXT
  5
1D94F
100
AcDbEntity
  8
STP
100
AcDbText
 10
17388.936603
 20
16152.224178
 30
0.0
 40
3.075
  1

  7
ROMANS8
100
AcDbText
  0
TEXT
  5
1D950
100
AcDbEntity
  8
STP
100
AcDbText
 10
17388.936603
 20
16148.220607
 30
0.0
 40
3.075
  1

  7
ROMANS8
100
AcDbText
  0
TEXT
  5
1D951
100
AcDbEntity
  8
STP
100
AcDbText
 10
17388.936603
 20
16144.229535
 30
0.0
 40
3.075
  1

  7
ROMANS8
100
AcDbText
  0
TEXT
  5
1D952
100
AcDbEntity
  8
STP
100
AcDbText
 10
15576.769116
 20
13464.202425
 30
0.0
 40
3.0
  1

  7
ROMANS8
100
AcDbText
  0
TEXT
  5
1D953
100
AcDbEntity
  8
STP
100
AcDbText
 10
15576.769116
 20
13458.345282
 30
0.0
 40
3.0
  1

  7
ROMANS8
100
AcDbText
  0
TEXT
  5
1D954
100
AcDbEntity
  8
STP
100
AcDbText
 10
17516.936603
 20
19010.243821
 30
0.0
 40
3.075
  1

  7
ROMANS8
100
AcDbText
  0
TEXT
  5
1D955
100
AcDbEntity
  8
STP
100
AcDbText
 10
17516.936603
 20
19006.252749
 30
0.0
 40
3.075
  1

  7
ROMANS8
100
AcDbText
  0
TEXT
  5
1D956
100
AcDbEntity
  8
STP
100
AcDbText
 10
17516.936603
 20
19002.224178
 30
0.0
 40
3.075
  1

  7
ROMANS8
100
AcDbText
  0
TEXT
  5
1D957
100
AcDbEntity
  8
STP
100
AcDbText
 10
17516.936603
 20
18998.220607
 30
0.0
 40
3.075
  1

  7
ROMANS8
100
AcDbText
  0
TEXT
  5
1D958
100
AcDbEntity
  8
STP
100
AcDbText
 10
17516.936603
 20
18994.229535
 30
0.0
 40
3.075
  1

  7
ROMANS8
100
AcDbText
  0
TEXT
  5
1D959
100
AcDbEntity
  8
STP
100
AcDbText
 10
15704.769116
 20
16314.202425
 30
0.0
 40
3.0
  1

  7
ROMANS8
100
AcDbText
  0
TEXT
  5
1D95A
100
AcDbEntity
  8
STP
100
AcDbText
 10
15704.769116
 20
16308.345282
 30
0.0
 40
3.0
  1

  7
ROMANS8
100
AcDbText
  0
TEXT
  5
1D95B
100
AcDbEntity
  8
STP
100
AcDbText
 10
18711.221485
 20
15670.579322
 30
0.0
 40
15.0
  1

  7
ROMANS8
100
AcDbText
  0
TEXT
  5
1D95C
100
AcDbEntity
  8
STP
100
AcDbText
 10
18811.221485
 20
15670.579322
 30
0.0
 40
15.0
  1

  7
ROMANS8
100
AcDbText
  0
TEXT
  5
1D95D
100
AcDbEntity
  8
STP
100
AcDbText
 10
18611.221485
 20
15670.579322
 30
0.0
 40
15.0
  1

  7
ROMANS8
100
AcDbText
  0
TEXT
  5
1D95E
100
AcDbEntity
  8
STP
100
AcDbText
 10
18611.221485
 20
15640.579322
 30
0.0
 40
15.0
  1

  7
ROMANS8
100
AcDbText
  0
TEXT
  5
1D95F
100
AcDbEntity
  8
STP
100
AcDbText
 10
18711.221485
 20
15640.579322
 30
0.0
 40
15.0
  1

  7
ROMANS8
100
AcDbText
  0
TEXT
  5
1D960
100
AcDbEntity
  8
STP
100
AcDbText
 10
18811.221485
 20
15640.579322
 30
0.0
 40
15.0
  1

  7
ROMANS8
100
AcDbText
  0
TEXT
  5
1D961
100
AcDbEntity
  8
STP
100
AcDbText
 10
17486.936603
 20
20155.243821
 30
0.0
 40
3.075
  1

  7
ROMANS8
100
AcDbText
  0
TEXT
  5
1D962
100
AcDbEntity
  8
STP
100
AcDbText
 10
17486.936603
 20
20151.252749
 30
0.0
 40
3.075
  1

  7
ROMANS8
100
AcDbText
  0
TEXT
  5
1D963
100
AcDbEntity
  8
STP
100
AcDbText
 10
17486.936603
 20
20147.224178
 30
0.0
 40
3.075
  1

  7
ROMANS8
100
AcDbText
  0
TEXT
  5
1D964
100
AcDbEntity
  8
STP
100
AcDbText
 10
17486.936603
 20
20143.220607
 30
0.0
 40
3.075
  1

  7
ROMANS8
100
AcDbText
  0
TEXT
  5
1D965
100
AcDbEntity
  8
STP
100
AcDbText
 10
17486.936603
 20
20139.229535
 30
0.0
 40
3.075
  1

  7
ROMANS8
100
AcDbText
  0
TEXT
  5
1D966
100
AcDbEntity
  8
STP
100
AcDbText
 10
15674.769116
 20
17459.202425
 30
0.0
 40
3.0
  1

  7
ROMANS8
100
AcDbText
  0
TEXT
  5
1D967
100
AcDbEntity
  8
STP
100
AcDbText
 10
15674.769116
 20
17453.345282
 30
0.0
 40
3.0
  1

  7
ROMANS8
100
AcDbText
  0
MTEXT
  5
1D968
100
AcDbEntity
  8
BEMASS
100
AcDbMText
 10
6854.458317
 20
12975.462742
 30
0.0
 40
25.0
 41
0.0
 71
     7
 72
     5
  1

  7
ROMANS
  0
MTEXT
  5
1D969
100
AcDbEntity
  8
BEMASS
100
AcDbMText
 10
7081.634012
 20
12975.462742
 30
0.0
 40
25.0
 41
0.0
 71
     9
 72
     5
  1

  7
ROMANS
  0
TEXT
  5
1D96A
100
AcDbEntity
  8
STP
100
AcDbText
 10
15654.964497
 20
17576.818199
 30
0.0
 40
15.0
  1

  7
ROMANS8
100
AcDbText
  0
TEXT
  5
1D96B
100
AcDbEntity
  8
STP
100
AcDbText
 10
15649.964497
 20
17552.532485
 30
0.0
 40
15.0
  1

  7
ROMANS8
100
AcDbText
  0
TEXT
  5
1D96C
100
AcDbEntity
  8
STP
100
AcDbText
 10
19898.078167
 20
15962.572585
 30
0.0
 40
15.0
  1

  7
ROMANS8
100
AcDbText
  0
TEXT
  5
1D96D
100
AcDbEntity
  8
STP
100
AcDbText
 10
15621.508171
 20
14674.022207
 30
0.0
 40
15.0
  1

  7
ROMANS8
100
AcDbText
  0
TEXT
  5
1D96E
100
AcDbEntity
  8
STP
100
AcDbText
 10
15626.508171
 20
14698.307921
 30
0.0
 40
15.0
  1

  7
ROMANS8
100
AcDbText
  0
TEXT
  5
1D96F
100
AcDbEntity
  8
STP
100
AcDbText
 10
17666.578167
 20
16619.929728
 30
0.0
 40
3.0
  1

  7
ROMANS8
100
AcDbText
  0
TEXT
  5
1D970
100
AcDbEntity
  8
BEMASS
100
AcDbText
 10
13850.078167
 20
15645.644014
 30
0.0
 40
50.0
  1

  7
ROMANS8
100
AcDbText
  0
TEXT
  5
1D971
100
AcDbEntity
  8
BEMASS
100
AcDbText
 10
17386.578167
 20
14527.786871
 30
0.0
 40
3.0
  1

  7
ROMANS8
100
AcDbText
  0
TEXT
  5
1D972
100
AcDbEntity
  8
BEMASS
100
AcDbText
 10
20340.078167
 20
16154.8583
 30
0.0
 40
15.0
  1

  7
ROMANS8
100
AcDbText
  0
TEXT
  5
1D973
100
AcDbEntity
  8
STP
100
AcDbText
 10
12628.074711
 20
17311.629631
 30
0.0
 40
3.0
  1

  7
ROMANS8
100
AcDbText
  0
TEXT
  5
1D974
100
AcDbEntity
  8
STP
100
AcDbText
 10
22621.964497
 20
20338.818199
 30
0.0
 40
15.0
  1

  7
ROMANS8
100
AcDbText
  0
TEXT
  5
1D975
100
AcDbEntity
  8
STP
100
AcDbText
 10
22616.964497
 20
20314.532485
 30
0.0
 40
15.0
  1

  7
ROMANS8
100
AcDbText
  0
TEXT
  5
1D976
100
AcDbEntity
  8
STP
100
AcDbText
 10
26865.078167
 20
18724.572585
 30
0.0
 40
15.0
  1

  7
ROMANS8
100
AcDbText
  0
TEXT
  5
1D977
100
AcDbEntity
  8
STP
100
AcDbText
 10
22588.508171
 20
17436.022207
 30
0.0
 40
15.0
  1

  7
ROMANS8
100
AcDbText
  0
TEXT
  5
1D978
100
AcDbEntity
  8
STP
100
AcDbText
 10
22593.508171
 20
17460.307921
 30
0.0
 40
15.0
  1

  7
ROMANS8
100
AcDbText
  0
TEXT
  5
1D979
100
AcDbEntity
  8
STP
100
AcDbText
 10
24633.578167
 20
19381.929728
 30
0.0
 40
3.0
  1

  7
ROMANS8
100
AcDbText
  0
TEXT
  5
1D97A
100
AcDbEntity
  8
STP
100
AcDbText
 10
33331.078167
 20
17386.144014
 30
0.0
 40
15.0
  1

  7
ROMANS8
100
AcDbText
  0
TEXT
  5
1D97B
100
AcDbEntity
  8
STP
100
AcDbText
 10
33331.078167
 20
20236.144014
 30
0.0
 40
15.0
  1

  7
ROMANS8
100
AcDbText
  0
TEXT
  5
1D97C
100
AcDbEntity
  8
STP
100
AcDbText
 10
38351.078167
 20
23908.644014
 30
0.0
 40
15.0
  1

  7
ROMANS8
100
AcDbText
  0
TEXT
  5
1D97D
100
AcDbEntity
  8
STP
100
AcDbText
 10
38076.578167
 20
23908.644014
 30
0.0
 40
15.0
  1

  7
ROMANS8
100
AcDbText
  0
TEXT
  5
1D97E
100
AcDbEntity
  8
STP
100
AcDbText
 10
29043.964497
 20
20323.318199
 30
0.0
 40
15.0
  1

  7
ROMANS8
100
AcDbText
  0
TEXT
  5
1D97F
100
AcDbEntity
  8
STP
100
AcDbText
 10
29038.964497
 20
20299.032485
 30
0.0
 40
15.0
  1

  7
ROMANS8
100
AcDbText
  0
TEXT
  5
1D980
100
AcDbEntity
  8
STP
100
AcDbText
 10
33287.078167
 20
18709.072585
 30
0.0
 40
15.0
  1

  7
ROMANS8
100
AcDbText
  0
TEXT
  5
1D981
100
AcDbEntity
  8
STP
100
AcDbText
 10
29010.508171
 20
17420.522207
 30
0.0
 40
15.0
  1

  7
ROMANS8
100
AcDbText
  0
TEXT
  5
1D982
100
AcDbEntity
  8
STP
100
AcDbText
 10
29015.508171
 20
17444.807921
 30
0.0
 40
15.0
  1

  7
ROMANS8
100
AcDbText
  0
TEXT
  5
1D983
100
AcDbEntity
  8
STP
100
AcDbText
 10
31055.578167
 20
19366.429728
 30
0.0
 40
3.0
  1

  7
ROMANS8
100
AcDbText
  0
TEXT
  5
1D984
100
AcDbEntity
  8
BEMASS
100
AcDbText
 10
27239.078167
 20
18392.144014
 30
0.0
 40
50.0
  1

  7
ROMANS8
100
AcDbText
  0
TEXT
  5
1D985
100
AcDbEntity
  8
BEMASS
100
AcDbText
 10
30775.578167
 20
17274.286871
 30
0.0
 40
3.0
  1

  7
ROMANS8
100
AcDbText
  0
TEXT
  5
1D986
100
AcDbEntity
  8
BEMASS
100
AcDbText
 10
33729.078167
 20
18901.3583
 30
0.0
 40
15.0
  1

  7
ROMANS8
100
AcDbText
  0
TEXT
  5
1D987
100
AcDbEntity
  8
STP
100
AcDbText
 10
26017.074711
 20
20058.129631
 30
0.0
 40
3.0
  1

  7
ROMANS8
100
AcDbText
  0
TEXT
  5
1D988
100
AcDbEntity
  8
STP
100
AcDbText
 10
22829.464497
 20
19229.318199
 30
0.0
 40
15.0
  1

  7
ROMANS8
100
AcDbText
  0
TEXT
  5
1D989
100
AcDbEntity
  8
STP
100
AcDbText
 10
22824.464497
 20
19205.032485
 30
0.0
 40
15.0
  1

  7
ROMANS8
100
AcDbText
  0
TEXT
  5
1D98A
100
AcDbEntity
  8
STP
100
AcDbText
 10
27072.578167
 20
17615.072585
 30
0.0
 40
15.0
  1

  7
ROMANS8
100
AcDbText
  0
TEXT
  5
1D98B
100
AcDbEntity
  8
STP
100
AcDbText
 10
22796.008171
 20
16326.522207
 30
0.0
 40
15.0
  1

  7
ROMANS8
100
AcDbText
  0
TEXT
  5
1D98C
100
AcDbEntity
  8
STP
100
AcDbText
 10
22801.008171
 20
16350.807921
 30
0.0
 40
15.0
  1

  7
ROMANS8
100
AcDbText
  0
TEXT
  5
1D98D
100
AcDbEntity
  8
BEMASS
100
AcDbText
 10
19205.189901
 20
24294.656746
 30
0.0
 40
20.0
  1

  7
ROMANS8
100
AcDbText
  0
TEXT
  5
1D98E
100
AcDbEntity
  8
STP
100
AcDbText
 10
22994.964497
 20
23769.318199
 30
0.0
 40
15.0
  1

  7
ROMANS8
100
AcDbText
  0
TEXT
  5
1D98F
100
AcDbEntity
  8
STP
100
AcDbText
 10
22989.964497
 20
23745.032485
 30
0.0
 40
15.0
  1

  7
ROMANS8
100
AcDbText
  0
TEXT
  5
1D990
100
AcDbEntity
  8
STP
100
AcDbText
 10
27238.078167
 20
22155.072585
 30
0.0
 40
15.0
  1

  7
ROMANS8
100
AcDbText
  0
TEXT
  5
1D991
100
AcDbEntity
  8
STP
100
AcDbText
 10
22961.508171
 20
20866.522207
 30
0.0
 40
15.0
  1

  7
ROMANS8
100
AcDbText
  0
TEXT
  5
1D992
100
AcDbEntity
  8
STP
100
AcDbText
 10
22966.508171
 20
20890.807921
 30
0.0
 40
15.0
  1

  7
ROMANS8
100
AcDbText
  0
TEXT
  5
1D993
100
AcDbEntity
  8
STP
100
AcDbText
 10
27072.964497
 20
23772.318199
 30
0.0
 40
15.0
  1

  7
ROMANS8
100
AcDbText
  0
TEXT
  5
1D994
100
AcDbEntity
  8
STP
100
AcDbText
 10
27067.964497
 20
23748.032485
 30
0.0
 40
15.0
  1

  7
ROMANS8
100
AcDbText
  0
TEXT
  5
1D995
100
AcDbEntity
  8
STP
100
AcDbText
 10
31316.078167
 20
22158.072585
 30
0.0
 40
15.0
  1

  7
ROMANS8
100
AcDbText
  0
TEXT
  5
1D996
100
AcDbEntity
  8
STP
100
AcDbText
 10
27039.508171
 20
20869.522207
 30
0.0
 40
15.0
  1

  7
ROMANS8
100
AcDbText
  0
TEXT
  5
1D997
100
AcDbEntity
  8
STP
100
AcDbText
 10
27044.508171
 20
20893.807921
 30
0.0
 40
15.0
  1

  7
ROMANS8
100
AcDbText
  0
TEXT
  5
1D998
100
AcDbEntity
  8
STP
100
AcDbText
 10
29084.578167
 20
22815.429728
 30
0.0
 40
3.0
  1

  7
ROMANS8
100
AcDbText
  0
TEXT
  5
1D999
100
AcDbEntity
  8
STP
100
AcDbText
 10
31130.964497
 20
24239.818199
 30
0.0
 40
15.0
  1

  7
ROMANS8
100
AcDbText
  0
TEXT
  5
1D99A
100
AcDbEntity
  8
STP
100
AcDbText
 10
31125.964497
 20
24215.532485
 30
0.0
 40
15.0
  1

  7
ROMANS8
100
AcDbText
  0
TEXT
  5
1D99B
100
AcDbEntity
  8
STP
100
AcDbText
 10
35374.078167
 20
22625.572585
 30
0.0
 40
15.0
  1

  7
ROMANS8
100
AcDbText
  0
TEXT
  5
1D99C
100
AcDbEntity
  8
STP
100
AcDbText
 10
31097.508171
 20
21337.022207
 30
0.0
 40
15.0
  1

  7
ROMANS8
100
AcDbText
  0
TEXT
  5
1D99D
100
AcDbEntity
  8
STP
100
AcDbText
 10
31102.508171
 20
21361.307921
 30
0.0
 40
15.0
  1

  7
ROMANS8
100
AcDbText
  0
TEXT
  5
1D99E
100
AcDbEntity
  8
STP
100
AcDbText
 10
33142.578167
 20
23282.929728
 30
0.0
 40
3.0
  1

  7
ROMANS8
100
AcDbText
  0
TEXT
  5
1D99F
100
AcDbEntity
  8
BEMASS
100
AcDbText
 10
29326.078167
 20
22308.644014
 30
0.0
 40
50.0
  1

  7
ROMANS8
100
AcDbText
  0
TEXT
  5
1D9A0
100
AcDbEntity
  8
BEMASS
100
AcDbText
 10
32862.578167
 20
21190.786871
 30
0.0
 40
3.0
  1

  7
ROMANS8
100
AcDbText
  0
TEXT
  5
1D9A1
100
AcDbEntity
  8
BEMASS
100
AcDbText
 10
35816.078167
 20
22817.8583
 30
0.0
 40
15.0
  1

  7
ROMANS8
100
AcDbText
  0
TEXT
  5
1D9A2
100
AcDbEntity
  8
BEMASS
100
AcDbText
 10
19578.189901
 20
23494.656746
 30
0.0
 40
20.0
  1

  7
ROMANS8
100
AcDbText
  0
INSERT
  5
1D9A3
100
AcDbEntity
  8
ASHADE
 62
     1
100
AcDbBlockReference
  2
AVE_RENDER
 10
24312.078167
 20
24234.144014
 30
0.0
1001
AVE_RENDER
1002
{
1070
     2
1000
Pref
1070
    30
1070
    20
1070
     0
1070
     0
1000

1070
    10
1070
     0
1070
    30
1040
1.0
1070
     1
1040
0.3
1040
0.7
1040
0.0
1040
10.0
1010
-1.0
1020
-1.0
1030
-1.0
1040
0.3
1070
    49
1002
}
  0
INSERT
  5
1D9A4
100
AcDbEntity
  8
ASHADE
 62
     3
100
AcDbBlockReference
  2
AVE_RENDER
 10
24312.078167
 20
24234.144014
 30
0.0
1001
AVE_RENDER
1002
{
1070
     0
1000
Full Opt
1070
     0
1070
     1
1070
     1
1070
     1
1070
     0
1070
     0
1070
     0
1070
     1
1070
     1
1040
0.0001
1040
0.0001
1002
}
  0
INSERT
  5
1D9A5
100
AcDbEntity
  8
ASHADE
 62
     4
100
AcDbBlockReference
  2
AVE_RENDER
 10
24312.078167
 20
24234.144014
 30
0.0
1001
AVE_RENDER
1002
{
1070
     0
1000
Quick Opt
1070
     0
1070
     1
1070
     1
1070
     1
1070
     0
1070
     0
1070
     1
1002
}
  0
TEXT
  5
1D9A6
100
AcDbEntity
  8
STP
100
AcDbText
 10
18639.647098
 20
10847.314597
 30
0.0
 40
15.0
  1

  7
ROMANS8
100
AcDbText
  0
TEXT
  5
1D9A7
100
AcDbEntity
  8
STP
100
AcDbText
 10
18634.647098
 20
10823.028883
 30
0.0
 40
15.0
  1

  7
ROMANS8
100
AcDbText
  0
TEXT
  5
1D9A8
100
AcDbEntity
  8
STP
100
AcDbText
 10
22882.760767
 20
9233.068983
 30
0.0
 40
15.0
  1

  7
ROMANS8
100
AcDbText
  0
TEXT
  5
1D9A9
100
AcDbEntity
  8
STP
100
AcDbText
 10
18606.190771
 20
7944.518605
 30
0.0
 40
15.0
  1

  7
ROMANS8
100
AcDbText
  0
TEXT
  5
1D9AA
100
AcDbEntity
  8
STP
100
AcDbText
 10
18611.190771
 20
7968.804319
 30
0.0
 40
15.0
  1

  7
ROMANS8
100
AcDbText
  0
TEXT
  5
1D9AB
100
AcDbEntity
  8
STP
100
AcDbText
 10
20651.260767
 20
9890.426126
 30
0.0
 40
3.0
  1

  7
ROMANS8
100
AcDbText
  0
TEXT
  5
1D9AC
100
AcDbEntity
  8
STP
100
AcDbText
 10
29348.760767
 20
7894.640412
 30
0.0
 40
15.0
  1

  7
ROMANS8
100
AcDbText
  0
TEXT
  5
1D9AD
100
AcDbEntity
  8
STP
100
AcDbText
 10
29348.760767
 20
10744.640412
 30
0.0
 40
15.0
  1

  7
ROMANS8
100
AcDbText
  0
TEXT
  5
1D9AE
100
AcDbEntity
  8
STP
100
AcDbText
 10
34368.760767
 20
14417.140412
 30
0.0
 40
15.0
  1

  7
ROMANS8
100
AcDbText
  0
TEXT
  5
1D9AF
100
AcDbEntity
  8
STP
100
AcDbText
 10
34094.260767
 20
14417.140412
 30
0.0
 40
15.0
  1

  7
ROMANS8
100
AcDbText
  0
TEXT
  5
1D9B0
100
AcDbEntity
  8
STP
100
AcDbText
 10
20786.573267
 20
7986.015412
 30
0.0
 40
15.375
  1

  7
ROMANS8
100
AcDbText
  0
TEXT
  5
1D9B1
100
AcDbEntity
  8
STP
100
AcDbText
 10
20786.573267
 20
7966.060055
 30
0.0
 40
15.375
  1

  7
ROMANS8
100
AcDbText
  0
TEXT
  5
1D9B2
100
AcDbEntity
  8
STP
100
AcDbText
 10
20786.573267
 20
7945.917198
 30
0.0
 40
15.375
  1

  7
ROMANS8
100
AcDbText
  0
TEXT
  5
1D9B3
100
AcDbEntity
  8
STP
100
AcDbText
 10
20786.573267
 20
7925.89934
 30
0.0
 40
15.375
  1

  7
ROMANS8
100
AcDbText
  0
TEXT
  5
1D9B4
100
AcDbEntity
  8
STP
100
AcDbText
 10
20786.573267
 20
7905.943983
 30
0.0
 40
15.375
  1

  7
ROMANS8
100
AcDbText
  0
TEXT
  5
1D9B5
100
AcDbEntity
  8
STP
100
AcDbText
 10
25061.647098
 20
10831.814597
 30
0.0
 40
15.0
  1

  7
ROMANS8
100
AcDbText
  0
TEXT
  5
1D9B6
100
AcDbEntity
  8
STP
100
AcDbText
 10
25056.647098
 20
10807.528883
 30
0.0
 40
15.0
  1

  7
ROMANS8
100
AcDbText
  0
TEXT
  5
1D9B7
100
AcDbEntity
  8
STP
100
AcDbText
 10
29304.760767
 20
9217.568983
 30
0.0
 40
15.0
  1

  7
ROMANS8
100
AcDbText
  0
TEXT
  5
1D9B8
100
AcDbEntity
  8
STP
100
AcDbText
 10
25028.190771
 20
7929.018605
 30
0.0
 40
15.0
  1

  7
ROMANS8
100
AcDbText
  0
TEXT
  5
1D9B9
100
AcDbEntity
  8
STP
100
AcDbText
 10
25033.190771
 20
7953.304319
 30
0.0
 40
15.0
  1

  7
ROMANS8
100
AcDbText
  0
TEXT
  5
1D9BA
100
AcDbEntity
  8
STP
100
AcDbText
 10
27073.260767
 20
9874.926126
 30
0.0
 40
3.0
  1

  7
ROMANS8
100
AcDbText
  0
TEXT
  5
1D9BB
100
AcDbEntity
  8
BEMASS
100
AcDbText
 10
23256.760767
 20
8900.640412
 30
0.0
 40
50.0
  1

  7
ROMANS8
100
AcDbText
  0
TEXT
  5
1D9BC
100
AcDbEntity
  8
BEMASS
100
AcDbText
 10
26793.260767
 20
7782.783269
 30
0.0
 40
3.0
  1

  7
ROMANS8
100
AcDbText
  0
TEXT
  5
1D9BD
100
AcDbEntity
  8
BEMASS
100
AcDbText
 10
29746.760767
 20
9409.854698
 30
0.0
 40
15.0
  1

  7
ROMANS8
100
AcDbText
  0
TEXT
  5
1D9BE
100
AcDbEntity
  8
STP
100
AcDbText
 10
22034.757311
 20
10566.626029
 30
0.0
 40
3.0
  1

  7
ROMANS8
100
AcDbText
  0
TEXT
  5
1D9BF
100
AcDbEntity
  8
STP
100
AcDbText
 10
21747.312331
 20
10858.974712
 30
0.0
 40
15.0
  1

  7
ROMANS8
100
AcDbText
  0
TEXT
  5
1D9C0
100
AcDbEntity
  8
STP
100
AcDbText
 10
21742.312331
 20
10834.688997
 30
0.0
 40
15.0
  1

  7
ROMANS8
100
AcDbText
  0
TEXT
  5
1D9C1
100
AcDbEntity
  8
STP
100
AcDbText
 10
25990.426
 20
9244.729098
 30
0.0
 40
15.0
  1

  7
ROMANS8
100
AcDbText
  0
TEXT
  5
1D9C2
100
AcDbEntity
  8
STP
100
AcDbText
 10
21713.856004
 20
7956.178719
 30
0.0
 40
15.0
  1

  7
ROMANS8
100
AcDbText
  0
TEXT
  5
1D9C3
100
AcDbEntity
  8
STP
100
AcDbText
 10
21718.856004
 20
7980.464433
 30
0.0
 40
15.0
  1

  7
ROMANS8
100
AcDbText
  0
TEXT
  5
1D9C4
100
AcDbEntity
  8
STP
100
AcDbText
 10
23758.926
 20
9902.086241
 30
0.0
 40
3.0
  1

  7
ROMANS8
100
AcDbText
  0
TEXT
  5
1D9C5
100
AcDbEntity
  8
STP
100
AcDbText
 10
32456.426
 20
7906.300526
 30
0.0
 40
15.0
  1

  7
ROMANS8
100
AcDbText
  0
TEXT
  5
1D9C6
100
AcDbEntity
  8
STP
100
AcDbText
 10
32456.426
 20
10756.300526
 30
0.0
 40
15.0
  1

  7
ROMANS8
100
AcDbText
  0
TEXT
  5
1D9C7
100
AcDbEntity
  8
STP
100
AcDbText
 10
37476.426
 20
14428.800526
 30
0.0
 40
15.0
  1

  7
ROMANS8
100
AcDbText
  0
TEXT
  5
1D9C8
100
AcDbEntity
  8
STP
100
AcDbText
 10
37201.926
 20
14428.800526
 30
0.0
 40
15.0
  1

  7
ROMANS8
100
AcDbText
  0
TEXT
  5
1D9C9
100
AcDbEntity
  8
STP
100
AcDbText
 10
23894.2385
 20
7997.675526
 30
0.0
 40
15.375
  1

  7
ROMANS8
100
AcDbText
  0
TEXT
  5
1D9CA
100
AcDbEntity
  8
STP
100
AcDbText
 10
23894.2385
 20
7977.720169
 30
0.0
 40
15.375
  1

  7
ROMANS8
100
AcDbText
  0
TEXT
  5
1D9CB
100
AcDbEntity
  8
STP
100
AcDbText
 10
23894.2385
 20
7957.577312
 30
0.0
 40
15.375
  1

  7
ROMANS8
100
AcDbText
  0
TEXT
  5
1D9CC
100
AcDbEntity
  8
STP
100
AcDbText
 10
23894.2385
 20
7937.559455
 30
0.0
 40
15.375
  1

  7
ROMANS8
100
AcDbText
  0
TEXT
  5
1D9CD
100
AcDbEntity
  8
STP
100
AcDbText
 10
23894.2385
 20
7917.604098
 30
0.0
 40
15.375
  1

  7
ROMANS8
100
AcDbText
  0
TEXT
  5
1D9CE
100
AcDbEntity
  8
STP
100
AcDbText
 10
28169.312331
 20
10843.474712
 30
0.0
 40
15.0
  1

  7
ROMANS8
100
AcDbText
  0
TEXT
  5
1D9CF
100
AcDbEntity
  8
STP
100
AcDbText
 10
28164.312331
 20
10819.188997
 30
0.0
 40
15.0
  1

  7
ROMANS8
100
AcDbText
  0
TEXT
  5
1D9D0
100
AcDbEntity
  8
STP
100
AcDbText
 10
32412.426
 20
9229.229098
 30
0.0
 40
15.0
  1

  7
ROMANS8
100
AcDbText
  0
TEXT
  5
1D9D1
100
AcDbEntity
  8
STP
100
AcDbText
 10
28135.856004
 20
7940.678719
 30
0.0
 40
15.0
  1

  7
ROMANS8
100
AcDbText
  0
TEXT
  5
1D9D2
100
AcDbEntity
  8
STP
100
AcDbText
 10
28140.856004
 20
7964.964433
 30
0.0
 40
15.0
  1

  7
ROMANS8
100
AcDbText
  0
TEXT
  5
1D9D3
100
AcDbEntity
  8
STP
100
AcDbText
 10
30180.926
 20
9886.586241
 30
0.0
 40
3.0
  1

  7
ROMANS8
100
AcDbText
  0
TEXT
  5
1D9D4
100
AcDbEntity
  8
BEMASS
100
AcDbText
 10
26364.426
 20
8912.300526
 30
0.0
 40
50.0
  1

  7
ROMANS8
100
AcDbText
  0
TEXT
  5
1D9D5
100
AcDbEntity
  8
BEMASS
100
AcDbText
 10
29900.926
 20
7794.443384
 30
0.0
 40
3.0
  1

  7
ROMANS8
100
AcDbText
  0
TEXT
  5
1D9D6
100
AcDbEntity
  8
BEMASS
100
AcDbText
 10
32854.426
 20
9421.514812
 30
0.0
 40
15.0
  1

  7
ROMANS8
100
AcDbText
  0
TEXT
  5
1D9D7
100
AcDbEntity
  8
STP
100
AcDbText
 10
25142.422544
 20
10578.286143
 30
0.0
 40
3.0
  1

  7
ROMANS8
100
AcDbText
  0
TEXT
  5
2701D
100
AcDbEntity
  8
LAYER1
 62
     7
100
AcDbText
 10
9942.283349
 20
5268.686783
 30
0.0
 40
25.429655
  1
 
100
AcDbText
  0
LINE
  5
2B258
100
AcDbEntity
  8
WANNE
100
AcDbLine
 10
3581.381334
 20
405.237017
 30
0.0
 11
5361.381334
 21
405.237017
 31
0.0
  0
LINE
  5
2B259
100
AcDbEntity
  8
WANNE
100
AcDbLine
 10
5371.381334
 20
415.237017
 30
0.0
 11
5371.381334
 21
1195.237017
 31
0.0
  0
LINE
  5
2B25A
100
AcDbEntity
  8
WANNE
100
AcDbLine
 10
5361.381334
 20
1205.237017
 30
0.0
 11
3581.381334
 21
1205.237017
 31
0.0
  0
LINE
  5
2B25B
100
AcDbEntity
  8
WANNE
100
AcDbLine
 10
3571.381334
 20
1195.237017
 30
0.0
 11
3571.381334
 21
415.237017
 31
0.0
  0
ARC
  5
2B27E
100
AcDbEntity
  8
WANNE
100
AcDbCircle
 10
4611.381334
 20
805.237017
 30
0.0
 40
980.0
100
AcDbArc
 50
165.981981
 51
194.018019
  0
ARC
  5
2B27F
100
AcDbEntity
  8
WANNE
100
AcDbCircle
 10
4331.381334
 20
805.237017
 30
0.0
 40
980.0
100
AcDbArc
 50
346.084652
 51
13.915348
  0
CIRCLE
  5
2B291
100
AcDbEntity
  8
WANNE
100
AcDbCircle
 10
4771.381334
 20
805.237017
 30
0.0
 40
45.0
  0
CIRCLE
  5
2B292
100
AcDbEntity
  8
WANNE
100
AcDbCircle
 10
4771.381334
 20
805.237017
 30
0.0
 40
60.0
  0
ARC
  5
2B29A
100
AcDbEntity
  8
WANNE
100
AcDbCircle
 10
4462.0647
 20
9464.152117
 30
0.0
 40
9000.0
100
AcDbArc
 50
265.460022
 51
274.66278
  0
ARC
  5
2B29B
100
AcDbEntity
  8
WANNE
100
AcDbCircle
 10
3757.588087
 20
592.077235
 30
0.0
 40
100.0
100
AcDbArc
 50
194.018019
 51
265.460022
  0
ARC
  5
2B29C
100
AcDbEntity
  8
WANNE
100
AcDbCircle
 10
5185.555177
 20
593.607515
 30
0.0
 40
100.0
100
AcDbArc
 50
274.66278
 51
346.084652
  0
ARC
  5
2B29D
100
AcDbEntity
  8
WANNE
100
AcDbCircle
 10
4462.0647
 20
-7853.678083
 30
0.0
 40
9000.0
100
AcDbArc
 50
85.33722
 51
94.539978
  0
ARC
  5
2B29E
100
AcDbEntity
  8
WANNE
100
AcDbCircle
 10
3757.588087
 20
1018.396798
 30
0.0
 40
100.0
100
AcDbArc
 50
94.539978
 51
165.981981
  0
ARC
  5
2B29F
100
AcDbEntity
  8
WANNE
100
AcDbCircle
 10
5185.555177
 20
1016.866518
 30
0.0
 40
100.0
100
AcDbArc
 50
13.915348
 51
85.33722
  0
ARC
  5
2B2ED
100
AcDbEntity
  8
WANNE
100
AcDbCircle
 10
4561.870565
 20
-7856.556102
 30
0.0
 40
9000.0
100
AcDbArc
 50
88.666093
 51
94.73418
  0
ARC
  5
2B2EE
100
AcDbEntity
  8
WANNE
100
AcDbCircle
 10
4561.870565
 20
9467.030136
 30
0.0
 40
9000.0
100
AcDbArc
 50
265.26582
 51
271.333907
  0
ARC
  5
2B324
100
AcDbEntity
  8
WANNE
100
AcDbCircle
 10
3719.975076
 20
6052.915453
 30
0.0
 40
5000.0
100
AcDbArc
 50
271.135655
 51
278.933011
  0
ARC
  5
2B325
100
AcDbEntity
  8
WANNE
100
AcDbCircle
 10
4806.932134
 20
-862.178498
 30
0.0
 40
2000.0
100
AcDbArc
 50
87.176078
 51
98.933011
  0
ARC
  5
2B326
100
AcDbEntity
  8
WANNE
100
AcDbCircle
 10
4806.932134
 20
2472.652531
 30
0.0
 40
2000.0
100
AcDbArc
 50
261.066989
 51
272.823922
  0
ARC
  5
2B327
100
AcDbEntity
  8
WANNE
100
AcDbCircle
 10
3719.975076
 20
-4442.44142
 30
0.0
 40
5000.0
100
AcDbArc
 50
81.066989
 51
88.864345
  0
ARC
  5
2B50F
100
AcDbEntity
  8
WANNE
100
AcDbCircle
 10
4255.733167
 20
805.237017
 30
0.0
 40
980.0
100
AcDbArc
 50
348.410779
 51
11.589221
  0
ARC
  5
2B510
100
AcDbEntity
  8
WANNE
100
AcDbCircle
 10
4964.453083
 20
805.237017
 30
0.0
 40
980.0
100
AcDbArc
 50
171.081559
 51
188.918441
  0
ARC
  5
2B512
100
AcDbEntity
  8
WANNE
100
AcDbCircle
 10
4462.0647
 20
-7853.678083
 30
0.0
 40
8960.0
100
AcDbArc
 50
85.755663
 51
87.389408
  0
ARC
  5
2B513
100
AcDbEntity
  8
WANNE
100
AcDbCircle
 10
4462.0647
 20
9464.152117
 30
0.0
 40
8960.0
100
AcDbArc
 50
272.610592
 51
274.244337
  0
ARC
  5
2B514
100
AcDbEntity
  8
WANNE
100
AcDbCircle
 10
5117.792662
 20
982.023408
 30
0.0
 40
100.0
100
AcDbArc
 50
11.589221
 51
85.755663
  0
ARC
  5
2B515
100
AcDbEntity
  8
WANNE
100
AcDbCircle
 10
5117.792662
 20
628.450626
 30
0.0
 40
100.0
100
AcDbArc
 50
274.244337
 51
348.410779
  0
ARC
  5
2B516
100
AcDbEntity
  8
WANNE
100
AcDbCircle
 10
3719.975076
 20
6052.915453
 30
0.0
 40
5025.0
100
AcDbArc
 50
274.197438
 51
277.915815
  0
ARC
  5
2B517
100
AcDbEntity
  8
WANNE
100
AcDbCircle
 10
3719.975076
 20
-4442.44142
 30
0.0
 40
5025.0
100
AcDbArc
 50
82.084185
 51
85.802562
  0
ARC
  5
2B518
100
AcDbEntity
  8
WANNE
100
AcDbCircle
 10
4095.092266
 20
941.661978
 30
0.0
 40
100.0
100
AcDbArc
 50
94.197438
 51
171.081559
  0
ARC
  5
2B519
100
AcDbEntity
  8
WANNE
100
AcDbCircle
 10
4095.092266
 20
668.812056
 30
0.0
 40
100.0
100
AcDbArc
 50
188.918441
 51
265.802562
  0
ARC
  5
2B51A
100
AcDbEntity
  8
WANNE
100
AcDbCircle
 10
4756.30263
 20
-1400.382488
 30
0.0
 40
2500.0
100
AcDbArc
 50
87.389408
 51
97.915815
  0
ARC
  5
2B51B
100
AcDbEntity
  8
WANNE
100
AcDbCircle
 10
4756.30263
 20
3010.856521
 30
0.0
 40
2500.0
100
AcDbArc
 50
262.084185
 51
272.610592
  0
ARC
  5
2B51C
100
AcDbEntity
  8
WANNE
100
AcDbCircle
 10
3581.381334
 20
1195.237017
 30
0.0
 40
10.0
100
AcDbArc
 50
90.0
 51
180.0
  0
ARC
  5
2B51D
100
AcDbEntity
  8
WANNE
100
AcDbCircle
 10
5361.381334
 20
1195.237017
 30
0.0
 40
10.0
100
AcDbArc
 50
0.0
 51
90.0
  0
ARC
  5
2B51E
100
AcDbEntity
  8
WANNE
100
AcDbCircle
 10
3581.381334
 20
415.237017
 30
0.0
 40
10.0
100
AcDbArc
 50
180.0
 51
270.0
  0
ARC
  5
2B51F
100
AcDbEntity
  8
WANNE
100
AcDbCircle
 10
5361.381334
 20
415.237017
 30
0.0
 40
10.0
100
AcDbArc
 50
270.0
 51
0.0
  0
CIRCLE
  5
2BC4B
100
AcDbEntity
  8
WANNE
100
AcDbCircle
 10
4771.381334
 20
805.237017
 30
0.0
 40
76.0
  0
LINE
  5
2BD70
100
AcDbEntity
  8
WANNE
 62
     7
100
AcDbLine
 10
3072.074066
 20
-339.273757
 30
0.0
 11
4412.074066
 21
-339.273757
 31
0.0
  0
LINE
  5
2BD71
100
AcDbEntity
  8
WANNE
 62
     7
100
AcDbLine
 10
5772.074066
 20
1585.726243
 30
0.0
 11
3072.074066
 21
1585.726243
 31
0.0
  0
LINE
  5
2BD7C
100
AcDbEntity
  8
WANNE
 62
     7
100
AcDbLine
 10
3072.074066
 20
1585.726243
 30
0.0
 11
3072.074066
 21
-339.273757
 31
0.0
  0
LINE
  5
2BD86
100
AcDbEntity
  8
WANNE
 62
     7
100
AcDbLine
 10
5772.074066
 20
-339.273757
 30
0.0
 11
5772.074066
 21
1585.726243
 31
0.0
  0
LINE
  5
2BD88
100
AcDbEntity
  8
WANNE
 62
     7
100
AcDbLine
 10
4414.574066
 20
-339.273757
 30
0.0
 11
5772.074066
 21
-339.273757
 31
0.0
  0
TEXT
  5
2BD89
100
AcDbEntity
  8
STP
 62
     7
100
AcDbText
 10
5308.876759
 20
-296.641733
 30
0.0
 40
22.5
  1
Zeichn.Nr.:01180101
  7
ROMANS8
100
AcDbText
  0
TEXT
  5
2BD8A
100
AcDbEntity
  8
STP
 62
     7
100
AcDbText
 10
5360.288358
 20
-141.23804
 30
0.0
 40
20.0
  1
20.11.02
  7
ROMANS8
100
AcDbText
  0
TEXT
  5
2BD8B
100
AcDbEntity
  8
STP
 62
     7
100
AcDbText
 10
5545.172865
 20
-141.23804
 30
0.0
 40
20.0
  1
Brittn.
  7
ROMANS8
100
AcDbText
  0
TEXT
  5
2BD8C
100
AcDbEntity
  8
STP
 62
     7
100
AcDbText
 10
5357.788358
 20
-93.73804
 30
0.0
 40
22.5
  1
Datum
  7
ROMANS8
100
AcDbText
  0
TEXT
  5
2BD8D
100
AcDbEntity
  8
STP
 62
     7
100
AcDbText
 10
5542.672865
 20
-93.73804
 30
0.0
 40
22.5
  1
Name
  7
ROMANS8
100
AcDbText
  0
TEXT
  5
2BD8E
100
AcDbEntity
  8
BEMASS
 62
     7
100
AcDbText
 10
4633.630622
 20
902.363621
 30
0.0
 40
50.0
  1
%%c90
  7
ROMANS8
100
AcDbText
  0
ARC
  5
2BDB6
100
AcDbEntity
  8
TT
 62
     7
100
AcDbCircle
 10
4775.692063
 20
517.805203
 30
0.0
 40
35.991587
100
AcDbArc
 50
279.407612
 51
291.801409
  0
ARC
  5
2BDB7
100
AcDbEntity
  8
TT
 62
     7
100
AcDbCircle
 10
4782.215667
 20
501.496193
 30
0.0
 40
18.426246
100
AcDbArc
 50
291.801409
 51
313.999901
  0
ARC
  5
2BDB8
100
AcDbEntity
  8
TT
 62
     7
100
AcDbCircle
 10
4791.908514
 20
491.458921
 30
0.0
 40
4.472819
100
AcDbArc
 50
313.999901
 51
360.0
  0
ARC
  5
2BDB9
100
AcDbEntity
  8
TT
 62
     7
100
AcDbCircle
 10
4791.908514
 20
491.458921
 30
0.0
 40
4.472819
100
AcDbArc
 50
0.0
 51
46.000099
  0
ARC
  5
2BDBA
100
AcDbEntity
  8
TT
 62
     7
100
AcDbCircle
 10
4782.215667
 20
481.421649
 30
0.0
 40
18.426246
100
AcDbArc
 50
46.000099
 51
68.198591
  0
ARC
  5
2BDBB
100
AcDbEntity
  8
TT
 62
     7
100
AcDbCircle
 10
4775.692063
 20
465.112639
 30
0.0
 40
35.991587
100
AcDbArc
 50
68.198591
 51
80.592388
  0
ARC
  5
2BDBC
100
AcDbEntity
  8
TT
 62
     7
100
AcDbCircle
 10
4760.547
 20
501.496193
 30
0.0
 40
18.426246
100
AcDbArc
 50
226.000099
 51
248.198591
  0
ARC
  5
2BDBD
100
AcDbEntity
  8
TT
 62
     7
100
AcDbCircle
 10
4767.070604
 20
517.805203
 30
0.0
 40
35.991587
100
AcDbArc
 50
248.198591
 51
260.592388
  0
ARC
  5
2BDBE
100
AcDbEntity
  8
TT
 62
     7
100
AcDbCircle
 10
4771.381334
 20
543.822758
 30
0.0
 40
62.363837
100
AcDbArc
 50
260.592388
 51
270.0
  0
ARC
  5
2BDBF
100
AcDbEntity
  8
TT
 62
     7
100
AcDbCircle
 10
4771.381334
 20
439.095084
 30
0.0
 40
62.363837
100
AcDbArc
 50
90.0
 51
99.407612
  0
ARC
  5
2BDC0
100
AcDbEntity
  8
TT
 62
     7
100
AcDbCircle
 10
4767.070604
 20
465.112639
 30
0.0
 40
35.991587
100
AcDbArc
 50
99.407612
 51
111.801409
  0
ARC
  5
2BDC1
100
AcDbEntity
  8
TT
 62
     7
100
AcDbCircle
 10
4760.547
 20
481.421649
 30
0.0
 40
18.426246
100
AcDbArc
 50
111.801409
 51
133.999901
  0
ARC
  5
2BDC2
100
AcDbEntity
  8
TT
 62
     7
100
AcDbCircle
 10
4771.381334
 20
543.822758
 30
0.0
 40
62.363837
100
AcDbArc
 50
270.0
 51
279.407612
  0
ARC
  5
2BDC3
100
AcDbEntity
  8
TT
 62
     7
100
AcDbCircle
 10
4771.381334
 20
439.095084
 30
0.0
 40
62.363837
100
AcDbArc
 50
80.592388
 51
90.0
  0
ARC
  5
2BDC4
100
AcDbEntity
  8
TT
 62
     7
100
AcDbCircle
 10
4750.854153
 20
491.458921
 30
0.0
 40
4.472819
100
AcDbArc
 50
180.0
 51
226.000099
  0
ARC
  5
2BDC5
100
AcDbEntity
  8
TT
 62
     7
100
AcDbCircle
 10
4750.854153
 20
491.458921
 30
0.0
 40
4.472819
100
AcDbArc
 50
133.999901
 51
180.0
  0
DIMENSION
  5
2BE80
100
AcDbEntity
  8
0
100
AcDbDimension
  2
*D2
 10
3571.381334
 20
1412.269349
 30
0.0
 11
4471.381334
 21
1437.269349
 31
0.0
 12
3045.39104
 22
94.359386
 32
0.0
 70
    32
  1
1800
  3
STANDARD
100
AcDbAlignedDimension
 13
5371.381334
 23
1195.237017
 33
0.0
 14
3571.381334
 24
1195.237017
 34
0.0
100
AcDbRotatedDimension
1001
ACAD
1000
DSTYLE
1002
{
1070
   288
1070
     0
1070
   140
1040
40.0
1070
   172
1070
     0
1070
   272
1070
     2
1070
    44
1040
1.0
1070
   141
1040
25.5
1070
    41
1040
40.0
1002
}
  0
DIMENSION
  5
2BE8D
100
AcDbEntity
  8
0
100
AcDbDimension
  2
*D3
 10
3631.381334
 20
1314.650839
 30
0.0
 11
4471.381334
 21
1339.650839
 31
0.0
 12
3045.39104
 22
94.359386
 32
0.0
 70
    32
  1
1680
  3
STANDARD
100
AcDbAlignedDimension
 13
5311.381334
 23
805.237017
 33
0.0
 14
3631.381334
 24
805.237017
 34
0.0
100
AcDbRotatedDimension
1001
ACAD
1000
DSTYLE
1002
{
1070
   288
1070
     0
1070
   140
1040
40.0
1070
   172
1070
     0
1070
   272
1070
     2
1070
    44
1040
1.0
1070
   141
1040
25.5
1070
    41
1040
40.0
1002
}
  0
DIMENSION
  5
2BE9B
100
AcDbEntity
  8
0
100
AcDbDimension
  2
*D4
 10
3571.381334
 20
1314.650839
 30
0.0
 11
3454.952762
 21
1339.650839
 31
0.0
 12
3045.39104
 22
94.385353
 32
0.0
 70
    32
  1
60
  3
STANDARD
100
AcDbAlignedDimension
 13
3631.381334
 23
805.262984
 33
0.0
 14
3571.381334
 24
805.262984
 34
0.0
100
AcDbRotatedDimension
1001
ACAD
1000
DSTYLE
1002
{
1070
   288
1070
     0
1070
   140
1040
40.0
1070
   172
1070
     0
1070
   272
1070
     2
1070
    44
1040
1.0
1070
   141
1040
25.5
1070
    41
1040
40.0
1002
}
  0
DIMENSION
  5
2BEA9
100
AcDbEntity
  8
0
100
AcDbDimension
  2
*D5
 10
5371.381334
 20
1314.650839
 30
0.0
 11
5487.809905
 21
1339.650839
 31
0.0
 12
3045.39104
 22
94.205762
 32
0.0
 70
    32
  1
60
  3
STANDARD
100
AcDbAlignedDimension
 13
5311.381334
 23
805.083393
 33
0.0
 14
5371.381334
 24
805.083393
 34
0.0
100
AcDbRotatedDimension
1001
ACAD
1000
DSTYLE
1002
{
1070
   288
1070
     0
1070
   140
1040
40.0
1070
   172
1070
     0
1070
   272
1070
     2
1070
    44
1040
1.0
1070
   141
1040
25.5
1070
    41
1040
40.0
1002
}
  0
DIMENSION
  5
2BEB7
100
AcDbEntity
  8
0
100
AcDbDimension
  2
*D6
 10
3340.581587
 20
1205.237017
 30
0.0
 11
3315.581587
 21
1321.665588
 31
0.0
 12
3045.39104
 22
94.359386
 32
0.0
 70
    32
  1
60
  3
STANDARD
100
AcDbAlignedDimension
 13
4462.0647
 23
1146.321917
 33
0.0
 14
4462.0647
 24
1205.237017
 34
0.0
 50
90.0
100
AcDbRotatedDimension
1001
ACAD
1000
DSTYLE
1002
{
1070
   288
1070
     0
1070
   140
1040
40.0
1070
   172
1070
     0
1070
   272
1070
     2
1070
    44
1040
1.0
1070
   141
1040
25.5
1070
    41
1040
40.0
1002
}
  0
DIMENSION
  5
2BEC4
100
AcDbEntity
  8
0
100
AcDbDimension
  2
*D7
 10
3278.363744
 20
405.237017
 30
0.0
 11
3253.363744
 21
805.237017
 31
0.0
 12
3045.39104
 22
94.359386
 32
0.0
 70
    32
  1
800
  3
STANDARD
100
AcDbAlignedDimension
 13
3581.381334
 23
1205.237017
 33
0.0
 14
3581.381334
 24
405.237017
 34
0.0
 50
90.0
100
AcDbRotatedDimension
1001
ACAD
1000
DSTYLE
1002
{
1070
   288
1070
     0
1070
   140
1040
40.0
1070
   172
1070
     0
1070
   272
1070
     2
1070
    44
1040
1.0
1070
   141
1040
25.5
1070
    41
1040
40.0
1002
}
  0
DIMENSION
  5
2BED2
100
AcDbEntity
  8
0
100
AcDbDimension
  2
*D8
 10
3341.069261
 20
405.237017
 30
0.0
 11
3316.069261
 21
288.808445
 31
0.0
 12
3045.39104
 22
94.359386
 32
0.0
 70
    32
  1
60
  3
STANDARD
100
AcDbAlignedDimension
 13
4561.870565
 23
467.030136
 33
0.0
 14
4561.870565
 24
405.237017
 34
0.0
 50
90.0
100
AcDbRotatedDimension
1001
ACAD
1000
DSTYLE
1002
{
1070
   288
1070
     0
1070
   140
1040
40.0
1070
   172
1070
     0
1070
   272
1070
     2
1070
    44
1040
1.0
1070
   141
1040
25.5
1070
    41
1040
40.0
1002
}
  0
DIMENSION
  5
2BEDF
100
AcDbEntity
  8
0
100
AcDbDimension
  2
*D9
 10
5638.859736
 20
405.237017
 30
0.0
 11
5613.859736
 21
605.237017
 31
0.0
 12
3045.39104
 22
94.359386
 32
0.0
 70
    32
  1
400
  3
STANDARD
100
AcDbAlignedDimension
 13
4771.381334
 23
805.237017
 33
0.0
 14
4771.381334
 24
405.237017
 34
0.0
 50
90.0
100
AcDbRotatedDimension
1001
ACAD
1000
DSTYLE
1002
{
1070
   288
1070
     0
1070
   140
1040
40.0
1070
   172
1070
     0
1070
   272
1070
     2
1070
    44
1040
1.0
1070
   141
1040
25.5
1070
    41
1040
40.0
1002
}
  0
DIMENSION
  5
2BEEC
100
AcDbEntity
  8
0
100
AcDbDimension
  2
*D10
 10
5371.381334
 20
195.877425
 30
0.0
 11
5071.381334
 21
220.877425
 31
0.0
 12
3045.39104
 22
94.359386
 32
0.0
 70
    32
  1
600
  3
STANDARD
100
AcDbAlignedDimension
 13
4771.381334
 23
805.237017
 33
0.0
 14
5371.381334
 24
805.237017
 34
0.0
100
AcDbRotatedDimension
1001
ACAD
1000
DSTYLE
1002
{
1070
   288
1070
     0
1070
   140
1040
40.0
1070
   172
1070
     0
1070
   272
1070
     2
1070
    44
1040
1.0
1070
   141
1040
25.5
1070
    41
1040
40.0
1002
}
  0
ENDSEC
  0
SECTION
  2
OBJECTS
  0
DICTIONARY
  5
C
100
AcDbDictionary
  3
ACAD_GROUP
350
D
  3
ACAD_MLINESTYLE
350
E
  3
ACDBVARIABLEDICTIONARY
350
14D76
  0
DICTIONARY
  5
D
102
{ACAD_REACTORS
330
C
102
}
100
AcDbDictionary
  0
DICTIONARY
  5
E
102
{ACAD_REACTORS
330
C
102
}
100
AcDbDictionary
  3
STANDARD
350
1B
  0
DICTIONARY
  5
14D76
102
{ACAD_REACTORS
330
C
102
}
100
AcDbDictionary
  3
SORTENTS
350
14D77
  0
MLINESTYLE
  5
1B
102
{ACAD_REACTORS
330
E
102
}
100
AcDbMlineStyle
  2
STANDARD
 70
     0
  3

 62
     0
 51
90.0
 52
90.0
 71
     2
 49
0.5
 62
   256
  6
BYLAYER
 49
-0.5
 62
   256
  6
BYLAYER
  0
DICTIONARYVAR
  5
14D77
102
{ACAD_REACTORS
330
14D76
102
}
100
DictionaryVariables
280
     0
  1
96
  0
ENDSEC
  0
EOF
